dic 8 2009

::: INFO ::::
Format.............: AVI
Resolution..............: 1280x720
Format profile.....: AdvancedSimple@L5
File size..........: 650 MiB
Duration...........: 35mn 51s

Movie Statistics

General
Complete name : H:\AC_Lineage_Full_Movie_UK\AC_Lineage_Full_Movie_UK.avi
Format : AVI
Format/Info : Audio Video Interleave
File size : 650 MiB
Duration : 35mn 51s
Overall bit rate : 2 536 Kbps

Video
ID : 0
Format : MPEG-4 Visual
Format profile : AdvancedSimple@L5
Format settings, BVOP : Yes
Format settings, QPel : No
Format settings, GMC : No warppoints
Format settings, Matrix : Default (H.263)
Muxing mode : Packed bitstream
Codec ID : XVID
Codec ID/Hint : XviD
Duration : 35mn 51s
Bit rate : 990 Kbps
Width : 1 280 pixels
Height : 720 pixels
Display aspect ratio : 16:9
Frame rate : 23.976 fps
Resolution : 24 bits
Colorimetry : 4:2:0
Scan type : Progressive
Bits/(Pixel*Frame) : 0.045
Stream size : 254 MiB (39%)
Writing library : XviD 1.2.0.dev47 (UTC 2006-11-01)

Audio
Format : PCM
Format settings, Endianness : Little
Format settings, Sign : Unsigned
Codec ID : 1
Codec ID/Hint : Microsoft
Duration : 35mn 51s
Bit rate mode : Constant
Bit rate : 1 536 Kbps
Channel(s) : 2 channels
Sampling rate : 48.0 KHz
Resolution : 16 bits
Stream size : 394 MiB (61%)
Interleave, duration : 42 ms (1.00 video frame)

<<<<< SIPNOPSIS >>>>>
La historia es una precuela del videojuego Assassin’s Creed II. Se centra en el padre del personaje principal del juego, Giovanni Auditore de Firenze.

Giovanni es un asesino de vida durante el Renacimiento en el siglo 15 Italia. En este amanecer de una nueva era, una conspiración se está trazada por una familia corrupta para derrocar a la poderosa familia Medici y destruir a una Italia unificada. Como un asesino, Giovanni debe hacer frente a esta amenaza y llevar ante la justicia. La historia presenta la situación antes de Assassin’s Creed II, y los enemigos de ambos personajes.

:::Ingles:::
The story is a prequel to the video game Assassin’s Creed II. It focuses on the father of the game’s main character, Giovanni Auditore of Firenze.

Giovanni is a murderer of life during the Renaissance in 15th century Italy. In this dawning of a new era, a conspiracy is being shaped by a corrupt family to overthrow the powerful Medici family and destroy a unified Italy. As a murderer, Giovanni must face this threat and bringing to justice. The story presents the situation before Assassin’s Creed II, and the enemies of both characters.


<<< LINK INTERCAMBIABLES >>>>

::: DOWNLOAD DEPOSITFILES ::::
http://depositfiles.com/files/kg0k3jtcr
http://depositfiles.com/files/7xf94gw99
http://depositfiles.com/files/a24897nj7

::: DOWNLOAD FREAKSHARE ::::
http://freakshare.net/files/01zjwq83/AC_Lineage_HD_x1.part1.rar.html
http://freakshare.net/files/f8sffzx0/AC_Lineage_HD_x1.part2.rar.html
http://freakshare.net/files/y7r4bq8c/AC_Lineage_HD_x1.part3.rar.html

:::PASWORD::::
tehcook

::: Subtitulos ::::
http://www.subdivx.com/bajar.php?id=174644&u=4


Mensaje Privado
7157 Visitas


FavoriteLoadingAñadir a favoritos


Categoria: Acción, Aventuras

RSS Seguir Feed RSS Comentarios | Temas de Red Jhon

Comentarios

  • jajaja ya la vi xD... GRAN aporte gracias x3

  • cual es la contraseña para descomprimirla? D:

  • rata gracias por el aporte para los q nos les sirvio los suptitulos es por q tinen q ponerle el nombre del icono del mismo es desir copiar el nombre q tine el archivo de video y pegarlo en el archivo del suptitulo XD :)

  • Oye compa no tienes un servidor mas feo 500 segundos de espera no %$&3@

  • @pepecheco1976: grax

  • por fin la encontre me dijeron ke esta muy buena esta pelis,salu2 buen aporte

  • hola k tal excelente aporte, los subtitulos no coinciden pero tuve suerte y los encontre haber si alguien le interesa.... aky estan http://www.mediafire.com/?ytjcj2goat2

  • Perfecto :D !! dioss lo malo es q esta en depositfile y en freakshare, fueras usado hotfile, megaupload o rapidshare, es mejor... pero bue :D

  • _____________________________________________________

    Excelente! Excelente! Excelente! Excelente! Excelente! Excelente!
    _____________________________________________________

    Al fin con subtitulos y en alta definicion (HD) aunque pesen mucho pero los otros son de mala calidad y en castellano :( Osea muy mal pero aqui estan en subtitulos
    _____________________________________________________

    Excelente! Excelente! Excelente! Excelente! Excelente! Excelente!

Deja tu comentario

Debes iniciar sesion para poder enviar un comentario.

Terminos y Condiciones - Politica de Privacidad - Report Abuse - DMCA