dic 7 2010
 
 	 
ImageShack, free image hosting, free video hosting, image hosting, video hosting, photo image hosting site, video hosting site

Jake Sully (Sam Worthington) es un ex marine que luego de una batalla en la Tierra queda parapléjico. Como parte de un programa de rehabilitación, Jake es enviado a Pandora donde se convertirá en un Avatar (un híbrido capaz de respirar el aire de Pandora y a través del cual podrá caminar nuevamente). Alli, Jake se enamorará de una princesa Na´vi pero pronto se verá atrapado en un conflicto entre su nuevo mundo y el ejército humano que busca explotar los recursos naturales de Pandora. “Le dije a nuestro equipo: Hagamos el último cuadro de Avatar, incluyendo todo lo que los fanáticos puedan querer. Hay un corte extendido que es dieciséis minutos más largo. Todo lo que vale la pena poner en una edición especial está en este juego”, comentó James Cameron. * Edición extendida para coleccionistas o 16 minutos más y una apertura exclusiva alternativa. El metraje adicional incluye la caza de nuevas criaturas y la muerte de algún personaje que fue omitida en la cinta original

ImageShack, free image hosting, free video hosting, image hosting, video hosting, photo image hosting site, video hosting site

Formato: .mkv

Calidad: 1080p

Tamaño: 6.29 GB

Idioma: Español

ImageShack, free image hosting, free video hosting, image hosting, video hosting, photo image hosting site, video hosting site

.
.
.
.
.
ImageShack, free image hosting, free video hosting, image hosting, video hosting, photo image hosting site, video hosting site

ImageShack, free image hosting, free video hosting, image hosting, video hosting, photo image hosting site, video hosting site
Ver 42 min de la pelicula en 1080p
.

ImageShack, free image hosting, free video hosting, image hosting, video hosting, photo image hosting site, video hosting site


.
6 links de 960 MB y 1 de 685 MB
Tamaño Total: 6.29 GB
.
http://www.fileserve.com/file/evANxtc/
http://www.fileserve.com/file/zV8S44Y/
http://www.fileserve.com/file/ZRNzvDx/
http://www.fileserve.com/file/sNg9s8m/
http://www.fileserve.com/file/fcsGPkG/
http://www.fileserve.com/file/XUHhT4Z/
http://www.fileserve.com/file/eFD7u6E/
.
6 links de 960 MB y 1 de 685 MB
Tamaño Total: 6.29 GB
.
http://www.megaupload.com/?d=JZTRX0PF
http://www.megaupload.com/?d=PO2MM0XL
http://www.megaupload.com/?d=3EOFKBQQ
http://www.megaupload.com/?d=IUMG3Q57
http://www.megaupload.com/?d=WU3A7TW7
http://www.megaupload.com/?d=DJH5IK7H
http://www.megaupload.com/?d=MHQ6EIAO

ImageShack, free image hosting, free video hosting, image hosting, video hosting, photo image hosting site, video hosting site




Mensaje Privado
42621 Visitas


FavoriteLoadingAñadir a favoritos


Categoria: Acción, Animación, Ciencia Ficción

RSS Seguir Feed RSS Comentarios | Temas de PiFo94

Comentarios

  • se te cayeron todos los links chabon repone por favor

  • puedes volver a subir los enlaces
    gracias!!!

  • los enlases estan desactivados podrian actibarlos?

  • los links están rotos
    por favor si pudieras volver a subirlos estaria muy agradecido, pues tiene muy buena pinta..
    gracias de antemano

  • Mas que exelente el aporte brother! Muchas grasias se te agradece. Es en Español-No-Latino

    Pantallazo1(LinksOnline): http://b.imagehost.org/0075/Screen-GP_By_Bazez.png
    Pantallazo2(Pelicula): http://b.imagehost.org/0398/Screen2-GP-By_Bazez.png

    Detalles del archivo:(Con Media Player Clasic - Home Cinema V1.3.1590.0)
    General
    Complete name : C:\Users\Bazez\Downloads\Avatar (V.Extendida) (2009)[BDrip m-1080p][Dual DTS y Ac3 (Esp-Eng)(subs)].mkv
    Format : Matroska
    File size : 6.34 GiB
    Duration : 2h 57mn
    Overall bit rate : 5 096 Kbps
    Encoded date : UTC 2010-11-24 06:57:23
    Writing application : mkvmerge v2.4.2 (‘Oh My God’) built on Jan 18 2009 17:30:28
    Writing library : libebml v0.7.7 + libmatroska v0.8.1

    Video
    ID : 1
    Format : AVC
    Format/Info : Advanced Video Codec
    Format profile : [email protected]
    Format settings, CABAC : Yes
    Format settings, ReFrames : 4 frames
    Muxing mode : Container profile=[email protected]
    Codec ID : V_MPEG4/ISO/AVC
    Duration : 2h 57mn
    Bit rate : 3 600 Kbps
    Nominal bit rate : 3 699 Kbps
    Width : 1 920 pixels
    Height : 1 080 pixels
    Display aspect ratio : 16:9
    Frame rate : 24.000 fps
    Resolution : 8 bits
    Colorimetry : 4:2:0
    Scan type : Progressive
    Bits/(Pixel*Frame) : 0.072
    Stream size : 4.48 GiB (71%)
    Writing library : x264 core 98 r1649 c54c47d
    Encoding settings : cabac=1 / ref=4 / deblock=1:0:0 / analyse=0x3:0x133 / me=umh / subme=9 / psy=1 / psy_rd=1.00:0.00 / mixed_ref=1 / me_range=16 / chroma_me=1 / trellis=2 / 8x8dct=1 / cqm=0 / deadzone=21,11 / fast_pskip=1 / chroma_qp_offset=-2 / threads=9 / sliced_threads=0 / nr=0 / decimate=1 / interlaced=0 / constrained_intra=0 / bframes=3 / b_pyramid=2 / b_adapt=2 / b_bias=0 / direct=3 / weightb=1 / weightp=2 / keyint=250 / keyint_min=25 / scenecut=40 / intra_refresh=0 / rc_lookahead=60 / rc=2pass / mbtree=1 / bitrate=3699 / ratetol=1.0 / qcomp=0.60 / qpmin=10 / qpmax=51 / qpstep=4 / cplxblur=20.0 / qblur=0.5 / vbv_maxrate=40000 / vbv_bufsize=40000 / ip_ratio=1.40 / aq=1:1.00 / nal_hrd=none
    Language : Spanish

    Audio #1
    ID : 2
    Format : DTS
    Format/Info : Digital Theater Systems
    Codec ID : A_DTS
    Duration : 2h 57mn
    Bit rate mode : Constant
    Bit rate : 755 Kbps
    Channel(s) : 6 channels
    Channel positions : Front: L C R, Surround: L R, LFE
    Sampling rate : 48.0 KHz
    Resolution : 24 bits
    Stream size : 961 MiB (15%)
    Title : DTS 755
    Language : Spanish

    Audio #2
    ID : 3
    Format : AC-3
    Format/Info : Audio Coding 3
    Codec ID : A_AC3
    Duration : 2h 57mn
    Bit rate mode : Constant
    Bit rate : 384 Kbps
    Channel(s) : 6 channels
    Channel positions : Front: L C R, Surround: L R, LFE
    Sampling rate : 48.0 KHz
    Stream size : 489 MiB (8%)
    Title : Ac3 320
    Language : Spanish

    Audio #3
    ID : 6
    Format : AC-3
    Format/Info : Audio Coding 3
    Codec ID : A_AC3
    Duration : 2h 57mn
    Bit rate mode : Constant
    Bit rate : 256 Kbps
    Channel(s) : 6 channels
    Channel positions : Front: L C R, Surround: L R, LFE
    Sampling rate : 48.0 KHz
    Stream size : 326 MiB (5%)
    Language : English

    Text #1
    ID : 4
    Format : UTF-8
    Codec ID : S_TEXT/UTF8
    Codec ID/Info : UTF-8 Plain Text
    Title : Forzados
    Language : Spanish

    Text #2
    ID : 5
    Format : UTF-8
    Codec ID : S_TEXT/UTF8
    Codec ID/Info : UTF-8 Plain Text
    Title : Completos
    Language : Spanish

    Text #3
    ID : 7
    Format : UTF-8
    Codec ID : S_TEXT/UTF8
    Codec ID/Info : UTF-8 Plain Text
    Title : Forzados
    Language : English

    Text #4
    ID : 8
    Format : UTF-8
    Codec ID : S_TEXT/UTF8
    Codec ID/Info : UTF-8 Plain Text
    Title : Completos
    Language : English

  • grasias amigo por este gran aporte espero q salga la version latina por que el castellano como q no me me adapto grasias

  • Pocos links pero no esta en ingles o latino T_T

Deja tu comentario

Debes iniciar sesion para poder enviar un comentario.

Terminos y Condiciones - Politica de Privacidad - Report Abuse - DMCA