dic 1 2010


Ciudad De Vida y Muerte 2010 HDRip Español/Ingles
HDRip | XviD | 3000 Mb | Español y Ingles | Animación | 2010 | FileServeBitShareUploadStore | Uploader: Jairgz

Título: City of Life and Death
Dirección: Lu Chuan
País:
Año: 2010.
Duración: 132 min.
Género: Bélico. Drama | Guerra Chino-Japonesa (II). Histórico. Años 30
Interpretación: Liu Ye, Gao Yuanyuan, Hideo Nakaizumi, Fan Wei, Ryu Kohata, Qin Lan, Jiang Yiyan, Zhao Yisui, Yao Di, John Paisley, Yuko Miyamoto, Liu Bin, Beverly Peckous, Aisling Dunne, Sam Voutas, Zhao Yisui
Guión: Lu Chuan
Producción: China Film Group / Jiangsu Broadcasting System / Media Asia Films / Stellar Megamedia
Música: Liu Tong

Año 1937, durante la guerra chino-japonesa. Las tropas niponas conquistan rápidamente territorio chino hasta alcanzar y conquistar Nanking, capital de China. “Ciudad de vida y muerte” narra las numerosas atrocidades cometidas por el Ejército Imperial Japonés en la ciudad china tras la caída de la capital, el 13 de diciembre de 1937. La crueldad de las tropas japonesas alcanzó cotas inimaginables. La historia sigue el destino de varios personajes, algunos fictios, otros reales, como un soldado chino que lucha por sobrevivir al horror de la matanza indiscriminada, un militar japonés traumatizado por las barbaridades cometidas por el ejército nipón, o el ayudante y su familia de un hombre de negocios aleman, con contactos con el gobierno nazi, volcado en proteger el máximo número de vidas posibles.

General

Complete name :Ciudad de vida y muerte.avi
Format : AVI
Format/Info : Audio Video Interleave
Format profile : OpenDML
File size : 2.98 GiB
Duration : 2h 9mn
Overall bit rate : 3 304 Kbps
Writing application : VirtualDubMod 1.5.10.2 (build 2542/release)
Writing library : VirtualDubMod build 2542/release
Copyright : WwW.TecnoDescargas. Co. Cc

Video

ID : 0
Format : MPEG-4 Visual
Format profile : Advanced Simple@L5
Format settings, BVOP : Yes
Format settings, QPel : No
Format settings, GMC : No warppoints
Format settings, Matrix : Default (H.263)
Codec ID : XVID
Codec ID/Hint : XviD
Duration : 2h 9mn
Bit rate : 2 520 Kbps
Width : 720 pixels
Height : 304 pixels
Display aspect ratio : 2.35:1
Frame rate : 25.000 fps
Color space : YUV
Chroma subsampling : 4:2:0
Bit depth : 8 bits
Scan type : Progressive
Bits/(Pixel*Frame) : 0.461
Stream size : 2.28 GiB (76%)
Writing library : XviD 1.1.2 (UTC 2006-11-01)

Audio#1

ID : 1
Format : AC-3
Format/Info : Audio Coding 3
Mode extension : CM (complete main)
Codec ID : 2000
Duration : 2h 9mn
Bit rate mode : Constant
Bit rate : 384 Kbps
Channel(s) : 6 channels
Channel positions : Front: L C R, Side: L R, LFE
Sampling rate : 48.0 KHz
Bit depth : 16 bits
Stream size : 355 MiB (12%)
Alignment : Split accross interleaves
Interleave, duration : 40 ms (1.00 video frame)
Interleave, preload duration : 500 ms

Audio#2

ID : 2
Format : AC-3
Format/Info : Audio Coding 3
Mode extension : CM (complete main)
Codec ID : 2000
Duration : 2h 9mn
Bit rate mode : Constant
Bit rate : 384 Kbps
Channel(s) : 6 channels
Channel positions : Front: L C R, Side: L R, LFE
Sampling rate : 48.0 KHz
Bit depth : 16 bits
Stream size : 355 MiB (12%)
Alignment : Split accross interleaves
Interleave, duration : 40 ms (1.00 video frame)
Interleave, preload duration : 500 ms

http://www.fileserve.com/file/HvRvAz6
http://www.fileserve.com/file/RwcpJYg
http://www.fileserve.com/file/BVVC4EH
http://www.fileserve.com/file/PCszZvT
http://www.fileserve.com/file/G94ERyD
http://www.fileserve.com/file/3X92uJX

http://bitshare.com/files/qr6pc70p/Ciudad_de_vida_muerte_By_Jairgz.part1.rar.html
http://bitshare.com/files/uvvkbrpd/Ciudad_de_vida_muerte_By_Jairgz.part2.rar.html
http://bitshare.com/files/7cz2u9ue/Ciudad_de_vida_muerte_By_Jairgz.part3.rar.html
http://bitshare.com/files/e1vrxjwf/Ciudad_de_vida_muerte_By_Jairgz.part4.rar.html
http://bitshare.com/files/063b1496/Ciudad_de_vida_muerte_By_Jairgz.part5.rar.html
http://bitshare.com/files/1h9ew1sv/Ciudad_de_vida_muerte_By_Jairgz.part6.rar.html

http://uploadstore.net/6fi7v1b9salr/Ciudad_de_vida_muerte_By_Jairgz.part1.rar.html
http://uploadstore.net/oidy4zccu3x3/Ciudad_de_vida_muerte_By_Jairgz.part2.rar.html
http://uploadstore.net/xbp40axwqvtu/Ciudad_de_vida_muerte_By_Jairgz.part3.rar.html
http://uploadstore.net/v86kqytqz5hf/Ciudad_de_vida_muerte_By_Jairgz.part4.rar.html
http://uploadstore.net/jzz2bptje3kr/Ciudad_de_vida_muerte_By_Jairgz.part5.rar.html
http://uploadstore.net/iy5jwcrwl1ma/Ciudad_de_vida_muerte_By_Jairgz.part6.rar.html


Mensaje Privado
4745 Visitas


FavoriteLoadingAñadir a favoritos


Categoria: Bélicas, Dramáticas

RSS Seguir Feed RSS Comentarios | Temas de Jairgz

Comentarios

Deja tu comentario

Debes iniciar sesion para poder enviar un comentario.

Terminos y Condiciones - Politica de Privacidad - Report Abuse - DMCA