ene 8 2013

ESTA ES UNA VERSION REMASTERIZADA POR MI, HE APLICADO FILTROS DE VIDEO PARA MEJORAR LA IMAGEN, YA QUE EN LA WEB SE ENCUENTRAN DE CALIDAD POBRE, LA PASE POR REALANIME6 PARA COMPRIMIR EL TAMAÑO SIN PERDER CALIDAD, EL ARCHIVO ORIGINAL SUPERABA 1,5GB, PERO ME SERIA IMPOSIBLE SUBIR EL ORIGINAL CON 25Kb/ps de UpStream, xD

Miniaturas 100 años despues

Ficha técnica:

Idioma: Español Latino

Subtitulos: NO

General
Complete name : 100 Años despues Dub.mp4
Format : MPEG-4
Format profile : Base Media
Codec ID : isom
File size : 93.6 MiB
Duration : 43mn 11s
Overall bit rate mode : Variable
Overall bit rate : 303 Kbps
Encoded date : UTC 2013-01-03 02:41:45
Tagged date : UTC 2013-01-03 02:41:45

Video
ID : 1
Format : AVC
Format/Info : Advanced Video Codec
Format profile : [email protected]
Format settings, CABAC : Yes
Format settings, ReFrames : 8 frames
Codec ID : avc1
Codec ID/Info : Advanced Video Coding
Duration : 43mn 11s
Bit rate : 268 Kbps
Maximum bit rate : 1 236 Kbps
Width : 640 pixels
Height : 480 pixels
Display aspect ratio : 4:3
Frame rate mode : Constant
Frame rate : 23.976 fps
Color space : YUV
Chroma subsampling : 4:2:0
Bit depth : 8 bits
Scan type : Progressive
Bits/(Pixel*Frame) : 0.036
Stream size : 82.8 MiB (89%)

Audio
ID : 2

Format : AAC
Format/Info : Advanced Audio Codec
Format profile : HE-AACv2 / HE-AAC / LC
Codec ID : 40
Duration : 43mn 11s
Bit rate mode : Variable
Bit rate : 32.0 Kbps
Maximum bit rate : 34.5 Kbps
Channel(s) : 2 channels / 1 channel / 1 channel
Channel positions : Front: L R / Front: C / Front: C
Sampling rate : 44.1 KHz / 44.1 KHz / 22.05 KHz
Compression mode : Lossy
Stream size : 9.89 MiB (11%)
Encoded date : UTC 2013-01-03 02:41:49
Tagged date : UTC 2013-01-03 02:41:50

Descarga de Mediafire:

http://www.mediafire.com/?d4fx7v495ikwo8u

Si se cae el Link avisenme, para subirlo de nuevo.


Mensaje Privado
8658 Visitas


FavoriteLoadingAñadir a favoritos


Categoria: Animés

RSS Seguir Feed RSS Comentarios | Temas de phamersen

Comentarios

Deja tu comentario

Debes iniciar sesion para poder enviar un comentario.

Terminos y Condiciones - Politica de Privacidad - Report Abuse - DMCA