may 29 2010

FICHA TECNICATitulo Original: Prince of Persia: The Sands of Time
Titulo hispano: El Principe de Persia: Las Arenas del Tiempo
GENERO: Fantasia
TEMÁTICA: Viaje Temporal, Adaptación Videojuego
PAIS: Estados Unidos
DURACION: 116 Minutos
AÑO: 2010
DIRECTOR: Mike Newell
GUION: Jordan Mechner, Carlo Bernard, Doug Miro, Boaz Yakin
INTERPRETES: Alfred Molina, Ambika Jois, Ben Kingsley, Gemma Arterton, Jake Gyllenhaal, Toby Kebbell
PRODUCTOR: Jerry Bruckheimer
FOTOGRAFÍA: John Seale
MUSICA: Harry Gregson-Williams
MONTAJE: Mick Audsley , Martin Walsh


La historia comienza cuando un rey y su hijo derrotan al Maharajá, gracias a la traición de su visir. Entre los exóticos tesoros del Maharajá se encuentra un enorme reloj de arena y una daga. Solamente el visir conoce el terrible poder de estos objetos, quien engaña al protagonista para que libere las arenas del tiempo. Este acto convierte en criaturas de arena a casi todos los presentes, incluido el rey, padre del protagonista. Éste debe buscar la manera de deshacer el entuerto. En su aventura, contará con la ayuda de Farah, hija del depuesto Maharajah.

General
Prince.of.Persia.The.Sands.of.Time.TS.AUDiOLATiNO.XViD-SW.avi
Format                           : AVI
Format/Info                      : Audio Video Interleave
Format profile                   : OpenDML
File size                        : 1.32 GiB
Duration                         : 1h 43mn
Overall bit rate                 : 1 818 Kbps
Writing application              : AVI-Mux GUI 1.17.8.3, Feb 16 201019:42:50

Video
ID                               : 0
Format                           : MPEG-4 Visual
Format profile                   : Advanced Simple@L5
Format settings, BVOP            : Yes
Format settings, QPel            : No
Format settings, GMC             : No warppoints
Format settings, Matrix          : Default (H.263)
Muxing mode                      : Packed bitstream
Codec ID                         : XVID
Duration                         : 1h 43mn
Bit rate                         : 1 620 Kbps
Width                            : 654 pixels
Height                           : 240 pixels
Display aspect ratio             : 2.725
Frame rate                       : 25.000 fps
Resolution                       : 8 bits
Colorimetry                      : 4:2:0
Scan type                        : Progressive
Bits/(Pixel*Frame)               : 0.413
Stream size                      : 1.18 GiB (89%)
Writing library                  : XviD 1.2.1 (UTC 2008-12-04)

Audio
ID                               : 1
Format                           : AC-3
Format/Info                      : Audio Coding 3
Codec ID                         : 2000
Duration                         : 1h 43mn
Bit rate mode                    : Constant
Bit rate                         : 192 Kbps
Channel(s)                       : 2 channels
Channel positions                : L R
Sampling rate                    : 48.0 KHz
Stream size                      : 143 MiB (11%)
Alignment                        : Aligned on interleaves
Interleave, duration             : 64 ms (1.60 video frames)
Interleave, preload duration     : 192 ms

ojo el audio es de cam

link intercambiables

http://rapidshare.com/files/393068408/Prin_p_Audio_latino_.part15.rar

http://rapidshare.com/files/393069304/Prin_p_Audio_latino_.part14.rar
http://rapidshare.com/files/393069572/Prin_p_Audio_latino_.part12.rar
http://rapidshare.com/files/393069577/Prin_p_Audio_latino_.part13.rar
http://rapidshare.com/files/393069693/Prin_p_Audio_latino_.part11.rar
http://rapidshare.com/files/393069864/Prin_p_Audio_latino_.part10.rar
http://rapidshare.com/files/393070016/Prin_p_Audio_latino_.part09.rar

http://rapidshare.com/files/393423878/Prin_p_Audio_latino_.part07.rar

http://rapidshare.com/files/393070294/Prin_p_Audio_latino_.part08.rar
http://rapidshare.com/files/393070555/Prin_p_Audio_latino_.part06.rar
http://rapidshare.com/files/393070740/Prin_p_Audio_latino_.part05.rar
http://rapidshare.com/files/393070912/Prin_p_Audio_latino_.part04.rar
http://rapidshare.com/files/393074853/Prin_p_Audio_latino_.part03.rar
http://rapidshare.com/files/393075103/Prin_p_Audio_latino_.part02.rar
http://rapidshare.com/files/393075838/Prin_p_Audio_latino_.part01.rar

http://depositfiles.com/files/41wohpu9y
http://depositfiles.com/files/uk6drwh8n
http://depositfiles.com/files/vrvg395ry
http://depositfiles.com/files/0sk01hgq9
http://depositfiles.com/files/1zn5wgkyu
http://depositfiles.com/files/zn4bh41z2
http://depositfiles.com/files/qechnokeh
http://depositfiles.com/files/0jp9wxu06
http://depositfiles.com/files/at7d0u2u9
http://depositfiles.com/files/zo9lj9n8c
http://depositfiles.com/files/gi3o8v4wl
http://depositfiles.com/files/ntpvlba6e
http://depositfiles.com/files/2jhe1ztgn

http://depositfiles.com/files/79muzk4d7

http://depositfiles.com/files/xxvwn17a9

http://www.megaupload.com/?d=J4NQ6IR1
http://www.megaupload.com/?d=1OFCAMLC
http://www.megaupload.com/?d=ULX31VW4
http://www.megaupload.com/?d=T8IIKZG9
http://www.megaupload.com/?d=3WQ98Z55
http://www.megaupload.com/?d=OVK6Q25C
http://www.megaupload.com/?d=IVOZ8JZ3
http://www.megaupload.com/?d=FGC3C6BK
http://www.megaupload.com/?d=WMCKS6TK
http://www.megaupload.com/?d=V4Y1GOH0
http://www.megaupload.com/?d=NNYMRS09
http://www.megaupload.com/?d=MG6E18OX
http://www.megaupload.com/?d=BV2W8M0H
http://www.megaupload.com/?d=PW6YLHAF
http://www.megaupload.com/?d=71VRGABN


Mensaje Privado
12216 Visitas


FavoriteLoadingAñadir a favoritos


Categoria: Acción, Aventuras

RSS Seguir Feed RSS Comentarios | Temas de gory2000

Comentarios

Deja tu comentario

Debes iniciar sesion para poder enviar un comentario.

Terminos y Condiciones - Politica de Privacidad - Report Abuse - DMCA