nov 9 2009

TITULO ORIGINAL The Lion King
AÑO 1994
PAÍS Estados Unidos
DIRECTOR Rob Minkoff, Roger Allers
GUIÓN Irene Mecchi, Jonathan Roberts, Linda Woolverton
MÚSICA Hans Zimmer (Canciones: Tim Rice, Elton John)
FOTOGRAFÍA Animation
REPARTO Animation
PRODUCTORA Walt Disney Pictures
Genero : Animación. Infantil
1994: 2 Oscar: mejor banda sonora, mejor canción

SINOPSIS: Narra la aventuras en la sabana africana de Simba, un pequeño león, heredero al trono, que se exilia al ser injustamente acusado de la muerte de su padre, pero que hace buenas amistades y regresa para recuperar lo que es suyo.

Video #0
Format : MPEG-4 Visual
Codec ID/Hint : XviD
Duration : 1h 28mn
Bit rate : 1 127 Kbps
Width : 704 pixels
Height : 416 pixels
Display aspect ratio : 1.692
Frame rate : 23.976 fps
Scan type : Progressive
Stream size : 716 MiB (89%)

Audio #1
Codec ID/Hint : MP3
Duration : 1h 28mn
Bit rate mode : Constant
Bit rate : 128 Kbps
Channel(s) : 2 channels
Sampling rate : 48.0 KHz
Resolution : 16 bits
Stream size : 81.4 MiB (10%)

Formato : AVI
Tamaño : 806 MiB
Duration : 1h 28mn
Overall bit rate : 1 267 Kbps
Idioma : Español Latino
Calidad : Dvdrip (Ripeado del Dvd original)

3 Links de 200 MB / Ultimo Link 198 MB

Freakshare

http://freakshare.net/files/8efelr6x/Lat.R3Y.L30N.ralf475.part1.rar.html
http://freakshare.net/files/egkonchl/Lat.R3Y.L30N.ralf475.part2.rar.html
http://freakshare.net/files/ffqah86p/Lat.R3Y.L30N.ralf475.part3.rar.html
http://freakshare.net/files/76zf6gze/Lat.R3Y.L30N.ralf475.part4.rar.html

Depositfiles

http://depositfiles.com/files/swenjiriv
http://depositfiles.com/files/ebfcj35ju
http://depositfiles.com/files/bw5vfovcp
http://depositfiles.com/files/4vpbyg6ln

Gotupload

http://www.gotupload.com/3vxchwpicsjs/Lat.R3Y.L30N.ralf475.part1.rar
http://www.gotupload.com/ctcqfmv6oves/Lat.R3Y.L30N.ralf475.part2.rar
http://www.gotupload.com/2i6qto5fqq8j/Lat.R3Y.L30N.ralf475.part3.rar
http://www.gotupload.com/j0vpvfaim0f1/Lat.R3Y.L30N.ralf475.part4.rar

Contraseña : ralf475

Archivos Intercambiables

Título Original: Lion King II: Simba’s pride
Año: 1998
Género: Animación
País: Estados Unidos, Australia
Duración: 81 minutos
Dirección: Rob LaDuca / Darrell Rooney
Guión: Flip Kobler / Jonathan Cuba

Sinopsis: Kiara, la impetuosa hija primogénita de Simba y heredera de los Dominios del Clan, deseosa de vivir nuevas aventuras decide adentrarse en las Tierras Oscuras, que se sitúan fuera de los límites establecidos para ella. Allí conoce al travieso Kovu, un joven cachorro elegido para seguir las huellas de Scar. Mientras buscan su propio lugar en El Ciclo de la Vida, Kiara y Kovu se dan cuenta de que quizás ellos sean la única esperanza de alcanzar la paz entre los habitantes de las Tierras Oscuras y los del territorio de Simba.

Video
Format : MPEG-4 Visual
Codec ID : DIVX
Codec ID/Hint : DivX 4
Duration : 1h 18mn
Bit rate : 917 Kbps
Width : 512 pixels
Height : 384 pixels
Display aspect ratio : 4/3
Frame rate : 23.976 fps
Resolution : 24 bits
Scan type : Progressive
Bits/(Pixel*Frame) : 0.195
Stream size : 516 MiB (74%)

Audio
Codec ID/Hint : MP3
Duration : 1h 18mn
Bit rate mode : Variable
Bit rate : 317 Kbps
Channel(s) : 2 channels
Sampling rate : 44.1 KHz
Resolution : 16 bits
Stream size : 178 MiB (25%)
Encoding settings : ABR

Format : AVI
Tamaño : 700 MiB
Duration : 1h 18mn
Overall bit rate : 1 246 Kbps
Idioma : Español Latino
Calidad : Dvdrip
Ripper : ?

3 Links de 200 MB / Ultimo link de 94 MB

Gotupload

http://www.gotupload.com/dq83s2ftmpha/R3y.Le0n.2.ralf475.part1.rar
http://www.gotupload.com/ta8g5h0otpu4/R3y.Le0n.2.ralf475.part2.rar
http://www.gotupload.com/je9f4r6jpyok/R3y.Le0n.2.ralf475.part3.rar
http://www.gotupload.com/omfpa5ebj6t8/R3y.Le0n.2.ralf475.part4.rar

Freakshare

http://freakshare.net/files/i7i2bzmf/R3y.Le0n.2.ralf475.part1.rar.html
http://freakshare.net/files/jizu62pd/R3y.Le0n.2.ralf475.part2.rar.html
http://freakshare.net/files/hzql82cr/R3y.Le0n.2.ralf475.part3.rar.html
http://freakshare.net/files/8smc3zm3/R3y.Le0n.2.ralf475.part4.rar.html


Depositfiles

http://depositfiles.com/files/d6os2hnoo
http://depositfiles.com/files/yy0y2hs53
http://depositfiles.com/files/uccnayt1j
http://depositfiles.com/files/te9d5reyn

Contraseña : ralf475

Archivos Intercambiables


El rey león 3 - Hakuna Matata (2004)

TÍTULO ORIGINAL The Lion King 1½
AÑO 2004
PAÍS [Estados Unidos]
DIRECTOR Bradley Raymond
GUIÓN Tom Rogers
MÚSICA Hans Zimmer & Don Harper
PRODUCTORA Walt Disney Pictures
GÉNERO Animación. Infantil. Comedia /

SINOPSIS: La diversión reina en esta nueva película en al que Timón y su simpático amigo Pumba son los grandes héroes de la Sabana. El Rey León 3 nos traslada al pasado, antes de que comenzase la historia de Simba, e incluso mucho más atrás. En esta nueva comedia de aventuras, Timón y Pumba te descubrirán sus orígenes, cuándo se conocieron y cómo ayudaron a Simba a salvar el Seregeti. Su historia incluye algunos de los grandes momentos de El Rey León, que ahora resultarán un poco diferentes desde su punto de vista. Por ejemplo, os sorprenderá conocer la verdad sobre cómo se desarrolló el trascendental momento en el que Simba fue presentado al reino animal.

Video
Format : MPEG-4 Visual
Codec ID : XVID
Duration : 1h 16mn
Bit rate : 1 111 Kbps
Width : 544 pixels
Height : 304 pixels
Display aspect ratio : 16/9
Frame rate : 23.976 fps
Bits/(Pixel*Frame) : 0.280
Stream size : 606 MiB (87%)

Audio
Codec ID/Hint : MP3
Duration : 1h 16mn
Bit rate mode : Constant
Bit rate : 160 Kbps
Channel(s) : 2 channels
Sampling rate : 48.0 KHz
Resolution : 16 bits
Stream size : 87.3 MiB (12%)

Format : AVI
Tamaño : 699 MiB
Duration : 1h 16mn
Overall bit rate : 1 280 Kbps
Idioma : Español Latino
Calidad : Dvdrip

3 Links de 175 MB / Ultimo Link de 168 MB

Depositfiles

http://depositfiles.com/files/v81ee67y4
http://depositfiles.com/files/wf183e4qt
http://depositfiles.com/files/wo66au0i0
http://depositfiles.com/files/lzbqzvrl2

Freakshare

http://freakshare.net/files/esctk5gi/R3y.Le0n.3.Latin0.ralf475.part1.rar.html
http://freakshare.net/files/ggimwf16/R3y.Le0n.3.Latin0.ralf475.part2.rar.html
http://freakshare.net/files/l0mdkiok/R3y.Le0n.3.Latin0.ralf475.part3.rar.html
http://freakshare.net/files/8rt1pi43/R3y.Le0n.3.Latin0.ralf475.part4.rar.html

Gotupload

http://www.gotupload.com/y7a5jyarlbdn/R3y.Le0n.3.Latin0.ralf475.part1.rar
http://www.gotupload.com/jjmt88wearht/R3y.Le0n.3.Latin0.ralf475.part2.rar
http://www.gotupload.com/ugnehsrjdkzd/R3y.Le0n.3.Latin0.ralf475.part3.rar
http://www.gotupload.com/gpddmu70dvhj/R3y.Le0n.3.Latin0.ralf475.part4.rar

Contraseña : ralf475

Archivos Intercambiables


Mensaje Privado
35144 Visitas


FavoriteLoadingAñadir a favoritos


Categoria: Animación, Clásicos

RSS Seguir Feed RSS Comentarios | Temas de Black88

Comentarios

Deja tu comentario

Debes iniciar sesion para poder enviar un comentario.

Terminos y Condiciones - Politica de Privacidad - Report Abuse - DMCA