ago 20 2010

TÍTULO ORIGINAL: Flight of the Living Dead (Plane Dead)
DIRECCIÓN: Scott Thomas
REPARTO: David Chisum, Kevin J. O’Connor, Kristen Kerr y Richard Tyson.
AÑO: 2007
PAÍS: Estados Unidos
GÉNERO: Terror

SINOPSIS:
Plane Dead es la historia del viaje transcontinental del vuelo 107. Comienza inocentemente, solo un vuelo más a bordo
de un boeing 747... Pero la zona de carga de este desafortuando vuelo guarda un secreto horroroso, una valija de metal
que alberga un virus mortal que cambia a los seres humanos en “muertos vivos” en solo minutos...

CAPTURAS

DESCARGA
http://www.gigasize.com/get.php?d=l5fqpv1b1qd
http://www.gigasize.com/get.php?d=nwwpp31bllf
http://www.gigasize.com/get.php?d=p4xpomfv7mb

INFO
Video
Codec ID/Hint                    : XviD
Duration                         : 1h 33mn
Bit rate                         : 907 Kbps
Width                            : 640 pixels
Height                           : 352 pixels
Display aspect ratio             : 16/9
Frame rate                       : 23.976 fps
Original frame rate              : 25.000 fps
Resolution                       : 24 bits
Colorimetry                      : 4:2:0
Scan type                        : Progressive
Bits/(Pixel*Frame)               : 0.168
Stream size                      : 607 MiB (87%)
Writing library                  : XviD 1.0.3 (UTC 2004-12-20)

Audio
Format                           : MPEG Audio
Format version                   : Version 1
Format profile                   : Layer 3
Codec ID                         : 55
Codec ID/Hint                    : MP3
Duration                         : 1h 33mn
Bit rate mode                    : Constant
Bit rate                         : 128 Kbps
Channel(s)                       : 2 channels
Sampling rate                    : 44.1 KHz
Resolution                       : 16 bits
Video delay                      : 9s 0ms
Stream size                      : 85.8 MiB (12%)
Alignment                        : Split accross interleaves
Interleave, duration             : 42 ms (1.00 video frame)
Interleave, preload duration     : 500 ms
Writing library                  : LAME3.98r
Encoding settings                : -m s -V 4 -q 2 -lowpass 17 -b 128


Mensaje Privado
8387 Visitas


FavoriteLoadingAñadir a favoritos


Categoria: Terror

RSS Seguir Feed RSS Comentarios | Temas de power5

Comentarios

Deja tu comentario

Debes iniciar sesion para poder enviar un comentario.

Terminos y Condiciones - Politica de Privacidad - Report Abuse - DMCA