may 4 2010

**************************************************  **************************************************
Iron Man 2 CAM XViD - IMAGiNE
**************************************************  **************************************************

Ripper ...........: IMAGiNE                                        IMDB Rating.......:7.9/10
Video Codec.......: XVID                                         Release Date......:02/05/10
Audio Codec.......:MP3                                           Theatre Date......:07/05/10
Audio Bitrate.....:128                                              Runtime.......:1h 52mn
Subtitles.........:NIL                                                 Language..........:ENGLISH
Resolution...... 720 x 288                                      IMDb URL..........:http://www.imdb.com/title/tt1228705/

DETAILS:

Video
ID                               : 0
Format                           : MPEG-4 Visual
Format profile                   : Advanced Simple@L5
Format settings, BVOP            : Yes
Format settings, QPel            : No
Format settings, GMC             : No warppoints
Format settings, Matrix          : Default (MPEG)
Muxing mode                      : Packed bitstream
Codec ID                         : XVID
Codec ID/Hint                    : XviD
Duration                         : 1h 52mn
Bit rate                         : 1 608 Kbps
Width                            : 720 pixels
Height                           : 288 pixels
Display aspect ratio             : 2.500
Frame rate                       : 25.000 fps
Resolution                       : 24 bits
Colorimetry                      : 4:2:0
Scan type                        : Progressive
Bits/(Pixel*Frame)               : 0.310
Stream size                      : 1.26 GiB (100%)
Writing library                  : XviD 1.2.1 (UTC 2008-12-04)

Audio
Format                           : MPEG Audio
Format version                   : Version 1
Format profile                   : Layer 3
Mode                             : Joint stereo
Format_Settings_ModeExtension    : MS Stereo
Duration                         : 1h 52mn
Bit rate mode                    : Constant
Bit rate                         : 128 Kbps
Channel(s)                       : 2 channels
Sampling rate                    : 48.0 KHz
Stream size                      : 103 MiB (100%)


Links:

http://www.megaupload.com/?d=4LEHHE6X
http://www.megaupload.com/?d=5IRTKGHI
http://www.megaupload.com/?d=5MTH2YFO
http://www.megaupload.com/?d=76BTDL9R
http://www.megaupload.com/?d=CYDLFD88
http://www.megaupload.com/?d=IC4CSFDT
http://www.megaupload.com/?d=J7M0CP1V
http://www.megaupload.com/?d=MG7FHZJV

http://rapidshare.com/files/382970676/Iron.Man.2.CAM.XViD-IMAGiNE.avi.part1.rar
http://rapidshare.com/files/382970681/Iron.Man.2.CAM.XViD-IMAGiNE.avi.part2.rar
http://rapidshare.com/files/382971154/Iron.Man.2.CAM.XViD-IMAGiNE.avi.part3.rar
http://rapidshare.com/files/382971954/Iron.Man.2.CAM.XViD-IMAGiNE.avi.part4.rar
http://rapidshare.com/files/382970948/Iron.Man.2.CAM.XViD-IMAGiNE.avi.part5.rar
http://rapidshare.com/files/382971470/Iron.Man.2.CAM.XViD-IMAGiNE.avi.part6.rar
http://rapidshare.com/files/382970887/Iron.Man.2.CAM.XViD-IMAGiNE.avi.part7.rar
http://rapidshare.com/files/382970729/Iron.Man.2.CAM.XViD-IMAGiNE.avi.part8.rar

SUBTITULOS:

http://www.megaupload.com/?d=UBPJLV3U


Mensaje Privado
6101 Visitas


FavoriteLoadingAñadir a favoritos


Categoria: Acción, Ciencia Ficción

RSS Seguir Feed RSS Comentarios | Temas de THEKAMIKAZE

Comentarios

Deja tu comentario

Debes iniciar sesion para poder enviar un comentario.

Terminos y Condiciones - Politica de Privacidad - Report Abuse - DMCA