feb 17 2012

TITULO ORIGINAL: The Pastor’s Wife
AÑO: 2011
MUSICA: Schaun Tozer
DIRECTOR: Norma Bailey
GUION: Robert L. Freedman (teleplay), Diane Fanning (based on the book by)
REPARTO : Rose McGowan, Martin Cummins, JUlia Sarah, Susan HOgan, Lilah Fitgerald Stone and Michael Shanks
Pais: USA | Canada
PRODUCTORA: Coproduccion Canada- EEUU; Front Street Picures/Preacher Road Productions
GENERO: Dramas, intriga , crimen basado en

El pastor de una pequeña localidad es asesinado en su casa y la esposa es detenida ante la mirada incredula de los vecinos. La policia investiga que la ha podido llevar a tan dramatica determinacion y las autoridades se hacen cargo de la custodia de los niños
hecho reales

Format : AVI
Format/Info : Audio Video Interleave
File size : 625 MiB
Duration : 1h 24mn
Overall bit rate : 1 033 Kbps
Writing library : VirtualDub build 32839/release

Video
ID : 0
Format : MPEG-4 Visual
Format profile : Advanced Simple@L5
Format settings, BVOP : 2
Format settings, QPel : No
Format settings, GMC : No warppoints
Format settings, Matrix : Default (H.263)
Muxing mode : Packed bitstream
Codec ID : XVID
Codec ID/Hint : XviD
Duration : 1h 24mn
Bit rate : 832 Kbps
Width : 720 pixels
Height : 416 pixels
Display aspect ratio : 16:9
Frame rate : 25.000 fps
Color space : YUV
Chroma subsampling : 4:2:0
Bit depth : 8 bits
Scan type : Progressive
Compression mode : Lossy
Bits/(Pixel*Frame) : 0.111
Stream size : 503 MiB (80%)
Writing library : XviD 64

Audio
ID : 1
Format : AC-3
Format/Info : Audio Coding 3
Mode extension : CM (complete main)
Codec ID : 2000
Duration : 1h 24mn
Bit rate mode : Constant
Bit rate : 192 Kbps
Channel(s) : 2 channels
Channel positions : Front: L R
Sampling rate : 48.0 KHz
Bit depth : 16 bits
Compression mode : Lossy
Stream size : 116 MiB (19%)
Alignment : Aligned on interleaves
Interleave, duration : 40 ms (1.00 video frame)
Interleave, preload duration : 512 ms

http://bitshare.com/files/q9jytti6/L...ash11.avi.html


Mensaje Privado
5883 Visitas


FavoriteLoadingAñadir a favoritos


Categoria: Suspenso y Misterio

RSS Seguir Feed RSS Comentarios | Temas de MasterRipperDVD

Comentarios

Deja tu comentario

Debes iniciar sesion para poder enviar un comentario.

Terminos y Condiciones - Politica de Privacidad - Report Abuse - DMCA