ago 23 2010

Título: La Tumba del Diablo
TÍTULO ORIGINAL: The Devil’s Tomb
AÑO: 2009
DURACIÓN: 90 min.
PAÍS: Estados Unidos
DIRECTOR: Jason Connery
GUIÓN: Keith Kjornes
REPARTO: Cuba Gooding Jr., Ray Winstone, Ron Perlman, Taryn Manning, Henry Rollins, Valerie Cruz,
Franky G, Zack Ward, Bill Moseley

SINOPSIS
Un equipo de mercenarios bajo las órdenes de Mack, un duro veterano de guerra, son contratados por una misteriosa
agente de la CIA llamada Elissa para rescatar a un científico que está trabajando en un descubrimiento arqueológico
en el desierto del oriente medio. Con la ayuda de un misterioso sacerdote, Mack y su equipo no tardarán en descubrir
el verdadero secreto que se oculta bajo la arena, un secreto que ha sido protegido durante miles de años, un secreto
que no es de esta Tierra.

CAPTURAS

descarga
http://www.gigasize.com/get.php?d=myn1b5jcr6c
http://www.gigasize.com/get.php?d=mtrk2gqz88b
http://www.gigasize.com/get.php?d=o1gcwkdgn9b
info
Video

Codec ID/Hint                    : XviD
Duration                         : 1h 30mn
Bit rate                         : 961 Kbps
Width                            : 624 pixels
Height                           : 352 pixels
Display aspect ratio             : 16/9
Frame rate                       : 23.976 fps
Resolution                       : 24 bits
Colorimetry                      : 4:2:0
Scan type                        : Progressive
Bits/(Pixel*Frame)               : 0.182
Stream size                      : 619 MiB (89%)
Writing library                  : XviD 1.2.1 (UTC 2008-12-04)

Audio
Format                           : MPEG Audio
Format version                   : Version 1
Format profile                   : Layer 3
Codec ID                         : 55
Codec ID/Hint                    : MP3
Duration                         : 1h 30mn
Bit rate mode                    : Constant
Bit rate                         : 112 Kbps
Channel(s)                       : 2 channels
Sampling rate                    : 48.0 KHz
Resolution                       : 16 bits
Video delay                      : 6s 550ms
Stream size                      : 72.1 MiB (10%)
Alignment                        : Split accross interleaves
Interleave, duration             : 42 ms (1.00 video frame)
Interleave, preload duration     : 500 ms
Writing library                  : LAME3.97
Encoding settings                : -m s -V 4 -q 7 -lowpass 15.6 -b 112


Mensaje Privado
4978 Visitas


FavoriteLoadingAñadir a favoritos


Categoria: Terror

RSS Seguir Feed RSS Comentarios | Temas de power5

Comentarios

Deja tu comentario

Debes iniciar sesion para poder enviar un comentario.

Terminos y Condiciones - Politica de Privacidad - Report Abuse - DMCA