oct 14 2010

Sinopsis


El segundo largo de Carlos Daniel Malavé (Por un polvo, 2008) es una curiosa mezcla de inteligente visión sobre un tema esencialmente cruel y una realización muy pobre. Las caras del diablo transita las rutas del policial para abordar el tráfico de menores y la prostitución infantil en la Venezuela de hoy a través del drama personal de Pedro Manuel Ramírez, investigador del CICPC obsesionado con un caso no resuelto de asesinato y violación de una niña de diez años, tres años atrás. El mismo criminal decide secuestrar a la hija del policía, en una suerte de acto perverso que destruye la ya atormentada vida de Ramírez. Tal es el punto de partida dramático de una película que parece el ensayo de un verdadero film con una propuesta inteligente y pertinente que demandaba mayor cuidado y madurez en el desarrollo del guión, en la concepción de su puesta en escena y en sus valores de producción. En este caso Malavé abortó una obra de mayor calidad y empuje sobre un problema brutalmente real y, en cambio, estrenó un relato cargado de intenciones creativas que parece un trabajo de aficionados.

Ficha Tecnica

Nombre:Las Caras del diablo
Pais: Venezuela
Director: Carlos Daniel Malavé
Duracion:1:34:03
Año:2010
Guion:Carlos Daniel Malavé
Música: Yoncarlos Medina
Fotografía, cámara y montaje: Carlos Daniel Malavé
reparto:Jean Paul Leroux, William Goite y María Fernanda León, secundados por Mariaca Semprún, Carlos Madera (Nigga), Agustín Segnini, Diego Hernández y Valentina Mammarella con las actuaciones especiales de Catherina Cardozo, Matilda Corral, Guillermo García, Jackson Gutierrez , Sócrates Serrano, Indra Santamaría y Guillermo Canache


General
Format : AVI
Format/Info : Audio Video Interleave
File size : 698 MiB
Duration : 1h 34mn
Overall bit rate : 1 037 Kbps
Writing application : VirtualDubMod 1.5.10.2 (build 2542/release)
Writing library : VirtualDubMod build 2542/release

Video
Format : MPEG-4 Visual
Format profile : Simple Streaming Video@L4
Format settings, BVOP : No
Format settings, QPel : No
Format settings, GMC : No warppoints
Format settings, Matrix : Default (H.263)
Codec ID : XVID
Codec ID/Hint : XviD
Duration : 1h 34mn
Bit rate : 859 Kbps
Width : 640 pixels
Height : 360 pixels
Display aspect ratio : 16/9
Frame rate : 29.970 fps
Resolution : 24 bits
Colorimetry : 4:2:0
Scan type : Progressive
Bits/(Pixel*Frame) : 0.124
Stream size : 578 MiB (83%)
Writing library : Magic0432

Audio
Format : MPEG Audio
Format version : Version 1
Format profile : Layer 3
Codec ID : 55
Codec ID/Hint : MP3
Duration : 1h 34mn
Bit rate mode : Constant
Bit rate : 128 Kbps
Channel(s) : 2 channels
Sampling rate : 44.1 KHz
Resolution : 16 bits
Stream size : 86.1 MiB (12%)
Alignment : Aligned on interleaves
Writing library : LAME3.97ªªªªªLAME3.9

Capturas
Descargas
Uploaded.to

http://uploaded.to/file/89jfuz
http://uploaded.to/file/cd7ldw
http://uploaded.to/file/ddumcq
http://uploaded.to/file/7i5ey7

Mensaje Privado
6857 Visitas


FavoriteLoadingAñadir a favoritos


Categoria: Acción, Extranjeras

RSS Seguir Feed RSS Comentarios | Temas de michel_vai

Comentarios

Deja tu comentario

Debes iniciar sesion para poder enviar un comentario.

Terminos y Condiciones - Politica de Privacidad - Report Abuse - DMCA