oct 2 2008

Le llamaban Trinidad (1971) (spaghetti western)(español)

Argumento

Después de atravesar un desierto, Trinidad (Terence Hill) se encuentra con su hermano, para descubrir que es el sheriff de un pequeño pueblo. Trinidad decide quedarse allí para descansar y comer. Su hermano (Bud Spencer), le pide que se vaya, pero Trinidad le ruega que le deje ocupar el puesto de ayudante, y así poder mantener a raya al malvado alcalde entre los dos.

Datos:

Le llamaban Trinidad

Titulo: Le llamaban Trinidad

Titulo original: They Call Me Trinity

País: Italia

Director: Enzo Barboni

Actores: Terence Hill y Bud Spencer

Año: 1971

Idioma: Hablado en español de España.

Género: spaghetti western, comedia

Clasificación: Apta para todo público

Duración: 1h 50mn

Datos técnicos del archivo de video:

Complete name                    : Le_Llamaba_Trinidad.avi
Format                           : AVI
Format/Info                      : Audio Video Interleave
File size                        : 697 MiB
Duration                         : 1h 50mn
Overal bit rate                  : 886 Kbps

Video
Format                           : MPEG-4 Visual
Format settings, BVOP            : Yes
Format settings, QPel            : No
Format settings, GMC             : No warpoints
Format settings, Matrix          : Default
Muxing mode                      : Packet Bitstream
Codec ID                         : DX50
Codec ID/Hint                    : DivX 5
Duration                         : 1h 50mn
Bit rate                         : 748 Kbps
Width                            : 720 pixels
Height                           : 540 pixels
Display aspect ratio             : 4/3
Frame rate                       : 25.000 fps
Resolution                       : 8 bits
Colorimetry                      : 4:2:0
Scan type                        : Progressive
Bits/(Pixel*Frame)               : 0.077
Stream size                      : 589 MiB
Writing library                  : DivX 6.0.0 (UTC 2005-06-15)

Audio
Format                           : MPEG Audio
Format version                   : Version 1
Format profile                   : Layer 3
Codec ID                         : 55
Codec ID/Hint                    : MP3
Duration                         : 1h 50mn
Bit rate mode                    : Constant
Bit rate                         : 128 Kbps
Channel(s)                       : 2 channels
Sampling rate                    : 44.1 KHz
Resolution                       : 16 bits
Video delay                      : 26ms
Stream size                      : 101 MiB
Title                            : Audio Stream

Capturas:

Descarga:

Parte 1

Parte 2

Parte 3

Parte 4

Parte 5

Parte 6

Parte 7

Nota:

Descarga todas las partes en el mismo directorio.

Les tienen que quedar algo así:

Si no ven la imagen, copien y peguen el siguiente link en otra pestaña del navegador:

http://merleitor.110mb.com/imagenes_para_post/triniti_files.JPG

Para unir las partes se requiere el Hjsplit.

Descargar Hjsplit

1) Descarga, instala y abre el programa.

2) Haz clic en Join

3) Elije solo la primera parte con la extensión “.001″

Cualquier cosa, avisarme.


Mensaje Privado
22166 Visitas


FavoriteLoadingAñadir a favoritos


Categoria: Clásicos, Comedias, Western

RSS Seguir Feed RSS Comentarios | Temas de the_mark

Comentarios

  • español latino .... por favor

  • hola, los links caducaron, actualizalos vale?

  • muy buena pelicula, lastima que los enlaces no andan, saludos

  • Gracias man, non calentarum.

  • XxDeathxX :

    creo que no tenés ni la mas MINIMA idea de lo que cuesta subir una pelicula, y más en formato AVI que siempre pesa mas de 700 Mb, asi que nunca hay que pedir si se puede subir a otro servidor (sacándo que el que lo posteo no fue el que subio la pelicula).
    Saludos/

  • gracias por la respuesta. yo no tuve, problemas co el link 2 solo con el 6, diganme, entonses no hay nada que aser, igual aqui vajo las mejores peliculas y espesifican vien lo del audio que es lo mejor, gracias, muchas gracias

  • disculpa, pero me olvide decirte que solo el link 2 y 6 no dan!!

  • Amigo por favor sube la pelicula a otro server, por que no se puede aparece esto: In this moment you can`t download this file, please try again in few minutes, we working on this server, SORRY!
    INTENTO!! pero no pasa nada!!
    espero me ayudes y porfa subelo a otro!! o explicame como hacerlo!

  • porfa no puedo con el link 6 quien me ayuda gracias. ya intente muchas veses lo que dise louishc. espero ayuda, gracis

  • HOLA VIEJO,FIJATE SI PODES SUBIR LA PARTE 3 Y 7 POR OTRO SERVIDOR YA QUE EN EL QUE ESTAN LOS DIERON DE BAJA.GRACIAS POR ESTE RECUERDO

  • sige intentando,asi lo pude descargar

  • holasss
    alguien puede arreglar el archivo 6 , o sino no me serviran el resto
    gracias...

  • por fabor arregla el link parte 6 gracias

  • Exelente, es una de las mejores peliculas que e visto, jeje yo la tengo y se la recomiendo a todos los que quieran reirse un monton,
    man te pasaste es un peliculon....................................

Deja tu comentario

Debes iniciar sesion para poder enviar un comentario.

Terminos y Condiciones - Politica de Privacidad - Report Abuse - DMCA