feb 28 2012

TÍTULO ORIGINAL: The Three Musketeers
AÑO: 2011
DURACIÓN: 110 min.
PAÍS: EEUU
DIRECTOR: Paul W.S. Anderson
GUIÓN: Alex Litvak, Andrew Davies (Novela: Alejandro Dumas)
MÚSICA: Paul Haslinger
FOTOGRAFÍA: Glen MacPherson
REPARTO: Logan Lerman,  Luke Evans,  Ray Stevenson,  Matthew Macfadyen,  Milla Jovovich,  Orlando Bloom,  Christoph Waltz,  Juno Temple,  Mads Mikkelsen,  Til Schweiger,  James Corden
PRODUCTORA: Coproducción Estados Unidos-Alemania-Francia-GB; Constantin Film / Impact Pictures / New Legacy
GÉNERO: Aventuras. Acción. Comedia. Romance | Capa y espada. Siglo XVII. 3-D

Francia, siglo XVII. Athos, Porthos y Aramis son tres prodigiosos espadachines que pertenecen al cuerpo de mosqueteros del rey Luis XIII de Francia (1610-1643). A París llega un joven y valeroso gascón que ingresa en la guardia del Rey para hacerse mosquetero. Los cuatro tendrán que hacer frente a una maquiavélica conspiración urdida por el cardenal Richelieu para derrocar al rey. Adaptación actualizada de la novela homónima de Alejandro Dumas.
(Información Extraída: FILMAFFINITY 5,1)


General
Unique ID                                : 173897045544159808471455660244109045642 (0x82D35A4C362BDCB69DF988AECD5F2F8A)
Complete name                            : H:\Los tres mosqueteros720_Latino_by_yolanda.mkv
Format                                   : Matroska
Format version                           : Version 2
File size                                : 3.31 GiB
Duration                                 : 1h 50mn
Overall bit rate                         : 4 287 Kbps
Movie name                               : Los tres mosqueteros720_Latino_by_yolanda
Encoded date                             : UTC 2012-02-28 12:42:05
Writing application                      : mkvmerge v4.9.1 (‘Ich will’) creado el Jul 11 2011 23:53:15
Writing library                          : libebml v1.2.1 + libmatroska v1.1.1

Video
ID                                       : 1
Format                                   : AVC
Format/Info                              : Advanced Video Codec
Format profile                           : [email protected]
Format settings, CABAC                   : Yes
Format settings, ReFrames                : 5 frames
Muxing mode                              : Header stripping
Codec ID                                 : V_MPEG4/ISO/AVC
Duration                                 : 1h 50mn
Bit rate                                 : 2 436 Kbps
Width                                    : 1 280 pixels
Height                                   : 544 pixels
Display aspect ratio                     : 2.35:1
Frame rate                               : 23.976 fps
Color space                              : YUV
Chroma subsampling                       : 4:2:0
Bit depth                                : 8 bits
Scan type                                : Progressive
Bits/(Pixel*Frame)                       : 0.146
Stream size                              : 1.88 GiB (57%)
Title                                    : Los tres mosqueteros720_Latino_by_yolanda
Writing library                          : x264 core 120 r2146 bcd41db
Encoding settings                        : cabac=1 / ref=5 / deblock=1:0:0 / analyse=0x3:0x113 / me=umh / subme=7 / psy=1 / psy_rd=1.00:0.00 / mixed_ref=1 / me_range=16 / chroma_me=1 / trellis=1 / 8x8dct=1 / cqm=0 / deadzone=21,11 / fast_pskip=0 / chroma_qp_offset=-2 / threads=9 / sliced_threads=0 / nr=0 / decimate=1 / interlaced=0 / bluray_compat=0 / constrained_intra=0 / bframes=3 / b_pyramid=2 / b_adapt=1 / b_bias=0 / direct=1 / weightb=1 / open_gop=0 / weightp=2 / keyint=250 / keyint_min=23 / scenecut=40 / intra_refresh=0 / rc_lookahead=40 / rc=crf / mbtree=1 / crf=20.0 / qcomp=0.60 / qpmin=0 / qpmax=69 / qpstep=4 / ip_ratio=1.40 / aq=1:1.00
Language                                 : English
Default                                  : No
Forced                                   : No

Audio #1
ID                                       : 2
Format                                   : DTS
Format/Info                              : Digital Theater Systems
Muxing mode                              : Header stripping
Codec ID                                 : A_DTS
Duration                                 : 1h 50mn
Bit rate mode                            : Constant
Bit rate                                 : 1 510 Kbps
Channel(s)                               : 6 channels
Channel positions                        : Front: L C R, Side: L R, LFE
Sampling rate                            : 48.0 KHz
Bit depth                                : 24 bits
Compression mode                         : Lossy
Delay relative to video                  : 11ms
Stream size                              : 1.17 GiB (35%)
Title                                    : DTS Ingles_by_yolanda
Language                                 : English
Default                                  : No
Forced                                   : No

Audio #2
ID                                       : 3
Format                                   : AC-3
Format/Info                              : Audio Coding 3
Mode extension                           : CM (complete main)
Muxing mode                              : Header stripping
Codec ID                                 : A_AC3
Duration                                 : 1h 50mn
Bit rate mode                            : Constant
Bit rate                                 : 256 Kbps
Channel(s)                               : 2 channels
Channel positions                        : Front: L R
Sampling rate                            : 48.0 KHz
Bit depth                                : 16 bits
Compression mode                         : Lossy
Delay relative to video                  : 1s 0ms
Stream size                              : 202 MiB (6%)
Title                                    : AC3 Latino_by_yolanda
Default                                  : Yes
Forced                                   : Yes

Text #1
ID                                       : 4
Format                                   : UTF-8
Codec ID                                 : S_TEXT/UTF8
Codec ID/Info                            : UTF-8 Plain Text
Title                                    : Sub Español_by_yolanda
Language                                 : Spanish
Default                                  : Yes
Forced                                   : No

Text #2
ID                                       : 5
Format                                   : UTF-8
Codec ID                                 : S_TEXT/UTF8
Codec ID/Info                            : UTF-8 Plain Text
Title                                    : Los tres mosqueteros720_Latino_by_yolanda
Default                                  : No
Forced                                   : No

¡¡¡LINKS INTERCAMBIABLES (550 MB)!!!

http://letitbit.net/download/67973.69153abd3eb37241c2dfbad5b5a8/yoli_LstrMsqtr.part1.rar.html
http://letitbit.net/download/73197.7e9c3a20c602a6a1e738141bcb3e/yoli_LstrMsqtr.part2.rar.html
http://letitbit.net/download/07126.02279e2787d8031f26b88b187d55/yoli_LstrMsqtr.part3.rar.html
http://letitbit.net/download/19746.1dd0de84d8b4abc5d7f4841992ee/yoli_LstrMsqtr.part4.rar.html
http://letitbit.net/download/72444.7fc90247bc6d4bdc6dfe9b24c38a/yoli_LstrMsqtr.part5.rar.html
http://letitbit.net/download/44142.41d0fc699eadcf373e5a52439bcf/yoli_LstrMsqtr.part6.rar.html
http://letitbit.net/download/42359.41dd259fdf65013057f00f02ab60/yoli_LstrMsqtr.part7.rar.html

http://ul.to/bwlf0b79/yoli_LstrMsqtr.part1.rar
http://ul.to/vkfupgzq/yoli_LstrMsqtr.part2.rar
http://ul.to/mp5d21b9/yoli_LstrMsqtr.part3.rar
http://ul.to/gol4wl8g/yoli_LstrMsqtr.part4.rar
http://ul.to/4g1ava0z/yoli_LstrMsqtr.part5.rar
http://ul.to/xelnsjbb/yoli_LstrMsqtr.part6.rar
http://ul.to/tmbxiylm/yoli_LstrMsqtr.part7.rar

http://shareflare.net/download/66327.69153abd3eb37241c2dfbad5b5a8/yoli_LstrMsqtr.part1.rar.html
http://shareflare.net/download/75045.7e9c3a20c602a6a1e738141bcb3e/yoli_LstrMsqtr.part2.rar.html
http://shareflare.net/download/08773.02279e2787d8031f26b88b187d55/yoli_LstrMsqtr.part3.rar.html
http://shareflare.net/download/13748.1dd0de84d8b4abc5d7f4841992ee/yoli_LstrMsqtr.part4.rar.html
http://shareflare.net/download/70415.7fc90247bc6d4bdc6dfe9b24c38a/yoli_LstrMsqtr.part5.rar.html
http://shareflare.net/download/43201.41d0fc699eadcf373e5a52439bcf/yoli_LstrMsqtr.part6.rar.html
http://shareflare.net/download/41633.41dd259fdf65013057f00f02ab60/yoli_LstrMsqtr.part7.rar.html


Mensaje Privado
3586 Visitas


FavoriteLoadingAñadir a favoritos


Categoria: Acción, Comedias, Romanticos

RSS Seguir Feed RSS Comentarios | Temas de yoli_88

Comentarios

  • Puedes subrir los Subtitulos en .srt aparte.

    Muchas gracias

  • Felicidades por el servidor shareflare, asi me gusta bajar.
    Casi no hay mas bueno servidores :-(

    Gracias

Deja tu comentario

Debes iniciar sesion para poder enviar un comentario.

Terminos y Condiciones - Politica de Privacidad - Report Abuse - DMCA