jun 7 2010
Sinopsis

La reina de Inglaterra y su hijo Philip se encuentran en un tren que va a Osaka. En ése mismo tren se encuentran Conan y Ran, que van de visita por invitación de Kazuha, y también Aoko, Kaito Kuroba y el inspector Nakamori con sus policías. Éstos están porque la reina ha recibido una carta de Kaito Kid, que anda tras un diamate que ella lleva siempre consigo. Durante toda la OVA Kaito intenta descubrir dónde se encuentra la joya para robarla mientras que conan descubre que en ese mismo tren también hay un terrible y brutal ladrón de Joyas que, además de Kid, quiere el diamante. Kid logra robar la joya pero el otro ladrón lo encuentra y está a punto de matarlo. Tras una dulce intervención Kid logra su objetivo y ayuda a un hijo a reconciliarse con su madre.

Datos Técnicos

Titulo: 名探偵コナン: コナンとキッドとクリスタルマザー
Titulo Alternativo: Detective Conan: Conan, Kid y el Cristal Madre
Categoría: Ova
Año: 2004
Genero: Accion, Shonen, Aventura, Misterio
Estudio: Tokyo Movie Shinsha
Audio: Japones
Subtitulos: Español
Fansub: Sekai no Otaku Fansub

Datos Técnicos
  • General

Format: MPEG-4
Format profile: Base Media
Codec ID: isom
File size: 230 MiB
Duration: 25mn 20s
Overall bit rate: 1 268 Kbps
Encoded date: UTC 2010-02-12 16:58:50
Tagged date: UTC 2010-02-12 16:58:50

  • Video

ID: 1
Format: AVC
Format/Info: Advanced Video Codec
Format profile: [email protected]
Format settings, CABAC: Yes
Format settings, ReFrames: 5 frames
Codec ID: avc1
Codec ID/Info: Advanced Video Coding
Duration: 25mn 20s
Bit rate mode: Variable
Bit rate: 1 102 Kbps
Maximum bit rate: 13.1 Mbps
Width: 704 pixels
Height: 528 pixels
Display aspect ratio: 4:3
Frame rate mode: Constant
Frame rate: 23.976 fps
Resolution: 24 bits
Colorimetry: 4:2:0
Scan type: Progressive
Bits/(Pixel*Frame): 0.124
Stream size: 200 MiB (87%)
Title: Imported with GPAC 0.4.6-DEV (build 1)
Writing library: x264 core 80 r1376M 3feaec2
Encoded date: UTC 2010-02-12 16:58:50
Tagged date: UTC 2010-02-12 16:59:02

  • Audio

ID: 2
Format: AAC
Format/Info: Advanced Audio Codec
Format version: Version 4
Format profile: LC
Format settings, SBR: No
Codec ID: 40
Duration: 25mn 20s
Bit rate mode: Variable
Bit rate: 163 Kbps
Maximum bit rate: 231 Kbps
Channel(s): 2 channels
Channel positions: L R
Sampling rate: 48.0 KHz
Resolution: 16 bits
Stream size: 29.5 MiB (13%)
Encoded date: UTC 2010-02-12 16:59:00
Tagged date: UTC 2010-02-12 16:59:02

Enlace

Descargar: http://www.megaupload.com/?d=CXWX1UET
Ver Online: http://www.megavideo.com/?d=CXWX1UET


Mensaje Privado
2895 Visitas


FavoriteLoadingAñadir a favoritos


Categoria: Animés

RSS Seguir Feed RSS Comentarios | Temas de Kaito...

Deja tu comentario

Debes iniciar sesion para poder enviar un comentario.

Terminos y Condiciones - Politica de Privacidad - Report Abuse - DMCA