dic 1 2011

Emma (Anne Hathaway) y Dexter (Jim Sturgess) se conocen el día de su graduación universitaria, el 15 de julio de 1988. Ella es una chica de clase trabajadora que sueña con hacer del mundo un lugar mejor. Él es un joven rico con ganas de comerse el mundo. Durante veinte años, cada 15 de julio, se nos muestra cómo transcurre su vida y lo extraordinaria que es su amistad. Pero, por fin, un día ambos se dan cuenta de que lo que habían estado buscando durante años estaba delante de ellos.

TÍTULO ORIGINAL: One Day
OTROS TÍTULOS: One Day (Siempre el mismo día) / Un Día
AÑO: 2011
DURACIÓN: 108 min.
PAÍS: USA
DIRECTOR: Lone Scherfig
GUIÓN: David Nicholls (Novela: David Nicholls)
MÚSICA: Rachel Portman
FOTOGRAFÍA: Benoît Delhomme
REPARTO: Anne Hathaway, Jim Sturgess, Patricia Clarkson, Romola Garai, Rafe Spall, Ken Stott
PRODUCTORA: Focus Features / Color Force / Random House Films
GÉNERO: Romance. Comedia. Drama | Comedia romántica. Amistad

BDRip 720pp | XviD | AC3 5.1 | 2.93 GB | Audios:Español Latino, Inglés | Subtítulos: Español | Romance | 2011
Video
ID : 0
Format : MPEG-4 Visual
Format profile : Advanced Simple@L5
Format settings, BVOP : 2
Format settings, QPel : No
Format settings, GMC : No warppoints
Format settings, Matrix : Default (MPEG)
Codec ID : XVID
Codec ID/Hint : XviD
Duration : 1h 47mn
Bit rate : 2 999 Kbps
Width : 1 280 pixels
Height : 544 pixels
Display aspect ratio : 2.35:1
Frame rate : 23.976 fps
Color space : YUV
Chroma subsampling : 4:2:0
Bit depth : 8 bits
Scan type : Progressive
Compression mode : Lossy
Bits/(Pixel*Frame) : 0.180
Stream size : 2.25 GiB (77%)
Writing library : XviD 1.2.1 (UTC 2008-12-04)
Audio #1
ID : 1
Format : AC-3
Format/Info : Audio Coding 3
Mode extension : CM (complete main)
Codec ID : 2000
Duration : 1h 47mn
Bit rate mode : Constant
Bit rate : 448 Kbps
Channel(s) : 6 channels
Channel positions : Front: L C R, Side: L R, LFE
Sampling rate : 48.0 KHz
Bit depth : 16 bits
Compression mode : Lossy
Stream size : 344 MiB (11%)
Alignment : Split accross interleaves
Interleave, duration : 42 ms (1.00 video frame)
Interleave, preload duration : 500 ms
Audio #2
ID : 2
Format : AC-3
Format/Info : Audio Coding 3
Mode extension : CM (complete main)
Codec ID : 2000
Duration : 1h 47mn
Bit rate mode : Constant
Bit rate : 448 Kbps
Channel(s) : 6 channels
Channel positions : Front: L C R, Side: L R, LFE
Sampling rate : 48.0 KHz
Bit depth : 16 bits
Compression mode : Lossy
Stream size : 344 MiB (11%)
Alignment : Split accross interleaves
Interleave, duration : 42 ms (1.00 video frame)
Interleave, preload duration : 500 ms



Netload

UploadStation

FileServe

Links Intercambiables


Mensaje Privado
10455 Visitas


FavoriteLoadingAñadir a favoritos


Categoria: Comedias, Dramáticas, Romanticos

RSS Seguir Feed RSS Comentarios | Temas de michel_vai

Deja tu comentario

Debes iniciar sesion para poder enviar un comentario.

Terminos y Condiciones - Politica de Privacidad - Report Abuse - DMCA