nov 24 2012

Cuenta la historia de John Bennett (Mark Wahlberg), que vive junto a un adorable osito de peluche que cobró vida como resultado de un deseo infantil… y que, desde entonces, se niega a abandonarlo. Una amistad que se pone a prueba cuando Lori (Mila Kunis), la novia de John con la que lleva cuatro años, quiere más de su relación.

Capturas:

Información:

Audio: castellano sin sub
Format : AVI
Format/Info : Audio Video Interleave
File size : 942 MiB
Duration : 1h 46mn
Overall bit rate : 1 242 Kbps
Writing application : VirtualDubMod 1.5.10.2 (build 2542/release)
Writing library : VirtualDubMod build 2542/release

Video
ID : 0
Format : MPEG-4 Visual
Format profile : Advanced Simple@L5
Format settings, BVOP : 2
Format settings, QPel : No
Format settings, GMC : No warppoints
Format settings, Matrix : Custom
Codec ID : XVID
Codec ID/Hint : XviD
Duration : 1h 46mn
Bit rate : 785 Kbps
Width : 640 pixels
Height : 336 pixels
Display aspect ratio : 1.905
Frame rate : 23.976 fps
Color space : YUV
Chroma subsampling : 4:2:0
Bit depth : 8 bits
Scan type : Progressive
Compression mode : Lossy
Bits/(Pixel*Frame) : 0.152
Stream size : 595 MiB (63%)
Writing library : XviD 1.2.1 (UTC 2008-12-04)

Audio
ID : 1
Format : AC-3
Format/Info : Audio Coding 3
Mode extension : CM (complete main)
Codec ID : 2000
Duration : 1h 46mn
Bit rate mode : Constant
Bit rate : 448 Kbps
Channel(s) : 6 channels
Channel positions : Front: L C R, Side: L R, LFE
Sampling rate : 48.0 KHz
Bit depth : 16 bits
Compression mode : Lossy
Stream size : 340 MiB (36%)
Alignment : Split accross interleaves
Interleave, duration : 42 ms (1.00 video frame)
Interleave, preload duration : 500 ms

Descarga:

===================================
http://www.filejungle.com/f/G9FmQ4/TeCaste.rar

===================================
http://fiberupload.com/TeCaste.rar/TeCaste.rar

===================================
http://rapidgator.net/file/58873636/TeCaste.rar.html
===================================
http://letitbit.net/download/11114.137598699803302c6f7ddd671a2f/TeCaste.rar.html
===================================
http://turbobit.net/wo8tll1j2u14/TeCaste.rar.html
===================================
http://shareflare.net/download/72463.7b3ec8e0b464feecd1f7ca3cce3a/TeCaste.rar.html
===================================
http://bayfiles.com/file/td9b/Loqve8/TeCaste.rar
===================================
http://depositfiles.com/files/fho72qdnm

===================================
http://ryushare.com/TeCaste.rar/TeCaste.rar

Si pide contraseña: vabkira


Mensaje Privado
1797 Visitas


FavoriteLoadingAñadir a favoritos


Categoria: Comedias, Fantasia

RSS Seguir Feed RSS Comentarios | Temas de kiras70

Comentarios

Deja tu comentario

Debes iniciar sesion para poder enviar un comentario.

Terminos y Condiciones - Politica de Privacidad - Report Abuse - DMCA