ene 17 2012

TITULO ORIGINAL : Little Robots 2011
Titulos Hispano: Pequeños Robots Grandes Aventuras
Año: 2011
Genero: Animacion

Little Robots es una Pelicula de Grandes Aventuras en Animacion.

Video
ID                               : 224 (0xE0)
Format                           : MPEG Video
Format version                   : Version 1
Format settings, BVOP            : Yes
Format settings, Matrix          : Custom
Duration                         : 45mn 9s
Bit rate                         : 1 142 Kbps
Maximum bit rate                 : 1 150 Kbps
Width                            : 352 pixels
Height                           : 240 pixels
Display aspect ratio             : 4:3
Frame rate                       : 29.970 fps
Standard                         : NTSC
Color space                      : YUV
Bit depth                        : 8 bits
Scan type                        : Progressive
Compression mode                 : Lossy
Bits/(Pixel*Frame)               : 0.451
Stream size                      : 369 MiB (88%)

Audio
ID                               : 192 (0xC0)
Format                           : MPEG Audio
Format version                   : Version 1
Format profile                   : Layer 2
Duration                         : 45mn 9s
Bit rate mode                    : Constant
Bit rate                         : 128 Kbps
Channel(s)                       : 2 channels
Sampling rate                    : 44.1 KHz
Compression mode                 : Lossy
Stream size                      : 41.4 MiB (10%)


LINK INTERCAMBIABLES DE 500MB


http://ul.to/0vnk74xz/LITTLE_ROBOTS.JGHS.rar


http://www.filejungle.com/f/UKbrXT


Mensaje Privado
5777 Visitas


FavoriteLoadingAñadir a favoritos


Categoria: Animación

RSS Seguir Feed RSS Comentarios | Temas de theone1515

Deja tu comentario

Debes iniciar sesion para poder enviar un comentario.

Terminos y Condiciones - Politica de Privacidad - Report Abuse - DMCA