abr 20 2013

Pokemon La Pelicula 7 [MicroHd 1080p] [Latino] [MUL]

31518776_pk7.png

INFO:

General
Complete name : G:\Pokémon Pelicula 07 - El Destino De Deoxys.mp4
Format : MPEG-4
Format profile : Base Media
Codec ID : isom
File size : 3.50 GiB
Duration : 1h 39mn
Overall bit rate mode : Variable
Overall bit rate : 5 029 Kbps
Encoded date : UTC 2013-04-12 00:39:24
Tagged date : UTC 2013-04-12 00:39:24

Video
ID : 1
Format : AVC
Format/Info : Advanced Video Codec
Format profile : [email protected]
Format settings, CABAC : Yes
Format settings, ReFrames : 4 frames
Codec ID : avc1
Codec ID/Info : Advanced Video Coding
Duration : 1h 39mn
Bit rate : 4 642 Kbps
Maximum bit rate : 25.6 Mbps
Width : 1 920 pixels
Height : 1 080 pixels
Display aspect ratio : 16:9
Frame rate mode : Constant
Frame rate : 23.976 fps
Color space : YUV
Chroma subsampling : 4:2:0
Bit depth : 8 bits
Scan type : Progressive
Bits/(Pixel*Frame) : 0.093
Stream size : 3.23 GiB (92%)
Title : 264#trackID=1:fps=[email protected]
Writing library : x264 core 130 r2273 b3065e6
Encoding settings : cabac=1 / ref=3 / deblock=1:-1:-1 / analyse=0x3:0x133 / me=umh / subme=7 / psy=1 / psy_rd=1.00:0.15 / mixed_ref=1 / me_range=16 / chroma_me=1 / trellis=2 / 8x8dct=1 / cqm=0 / deadzone=21,11 / fast_pskip=0 / chroma_qp_offset=-3 / threads=16 / lookahead_threads=2 / sliced_threads=0 / nr=0 / decimate=1 / interlaced=0 / bluray_compat=0 / constrained_intra=0 / bframes=3 / b_pyramid=2 / b_adapt=2 / b_bias=0 / direct=3 / weightb=1 / open_gop=0 / weightp=2 / keyint=240 / keyint_min=23 / scenecut=40 / intra_refresh=0 / rc_lookahead=40 / rc=2pass / mbtree=1 / bitrate=4642 / ratetol=1.0 / qcomp=0.60 / qpmin=10 / qpmax=51 / qpstep=4 / cplxblur=20.0 / qblur=0.5 / vbv_maxrate=31250 / vbv_bufsize=31250 / nal_hrd=none / ip_ratio=1.40 / aq=1:1.00
Encoded date : UTC 2013-04-12 00:39:24
Tagged date : UTC 2013-04-12 00:39:44

Audio #1
ID : 2
Format : AC-3
Format/Info : Audio Coding 3
Mode extension : CM (complete main)
Format settings, Endianness : Big
Codec ID : ac-3
Duration : 1h 39mn
Bit rate mode : Constant
Bit rate : 128 Kbps
Channel(s) : 2 channels
Channel positions : Front: L R
Sampling rate : 48.0 KHz
Bit depth : 16 bits
Compression mode : Lossy
Stream size : 91.2 MiB (3%)
Title : ac3#trackID=1:lang=[email protected]
Language : Spanish
Encoded date : UTC 2013-04-12 00:39:39
Tagged date : UTC 2013-04-12 00:39:44

Audio #2
ID : 3
Format : AC-3
Format/Info : Audio Coding 3
Mode extension : CM (complete main)
Format settings, Endianness : Big
Codec ID : ac-3
Duration : 1h 39mn
Bit rate mode : Constant
Bit rate : 128 Kbps
Channel(s) : 2 channels
Channel positions : Front: L R
Sampling rate : 48.0 KHz
Bit depth : 16 bits
Compression mode : Lossy
Stream size : 91.2 MiB (3%)
Title : ac3#trackID=1:lang=[email protected]
Language : English
Encoded date : UTC 2013-04-12 00:39:40
Tagged date : UTC 2013-04-12 00:39:44

Audio #3
ID : 4
Format : AC-3
Format/Info : Audio Coding 3
Mode extension : CM (complete main)
Format settings, Endianness : Big
Codec ID : ac-3
Duration : 1h 39mn
Bit rate mode : Constant
Bit rate : 128 Kbps
Channel(s) : 2 channels
Channel positions : Front: L R
Sampling rate : 48.0 KHz
Bit depth : 16 bits
Compression mode : Lossy
Stream size : 91.2 MiB (3%)
Title : ac3#trackID=1:lang=[email protected]
Language : Japanese
Encoded date : UTC 2013-04-12 00:39:42
Tagged date : UTC 2013-04-12 00:39:44

Text
ID : 5
Format : Timed text
Codec ID : tx3g
Duration : 1h 32mn
Bit rate mode : Variable
Bit rate : 35 bps
Stream size : 23.9 KiB (0%)
Title : Subs Latinos
Language : Spanish
Encoded date : UTC 2013-04-12 00:39:44
Tagged date : UTC 2013-04-12 00:39:44

Menu
00:00:00.000 : Chapter 01
00:04:22.596 : Chapter 02
00:08:08.113 : Chapter 03
00:12:37.882 : Chapter 04
00:15:18.543 : Chapter 05
00:20:42.783 : Chapter 06
00:24:29.968 : Chapter 07
00:27:03.997 : Chapter 08
00:32:32.325 : Chapter 09
00:37:20.155 : Chapter 10
00:41:32.073 : Chapter 11
00:44:35.298 : Chapter 12
00:48:03.130 : Chapter 13
00:52:23.057 : Chapter 14
00:56:49.781 : Chapter 15
01:02:10.518 : Chapter 16
01:04:57.060 : Chapter 17
01:07:37.553 : Chapter 18
01:11:46.052 : Chapter 19
01:17:47.413 : Chapter 20
01:21:51.615 : Chapter 21
01:25:59.237 : Chapter 22
01:29:14.099 : Chapter 23
01:32:34.716 : Chapter 24
01:38:15.681 : Chapter 25

 CAPS:

31518779_pokmon_pelicula_07.jpg

31518778_pokmon_pelicula_07.jpg

31518777_pokmon_pelicula_07.jpg

Links De Descarga:

http://www.mirrorupload.net/file/18NUJNLA/#!P0801_07_EIVOM_YARULB_NOMEKOP.part01.rar
http://www.mirrorupload.net/file/0JNMG3RH/#!P0801_07_EIVOM_YARULB_NOMEKOP.part02.rar
http://www.mirrorupload.net/file/OIQBEUHM/#!P0801_07_EIVOM_YARULB_NOMEKOP.part02.rar
http://www.mirrorupload.net/file/XKSYWYTH/#!P0801_07_EIVOM_YARULB_NOMEKOP.part03.rar
http://www.mirrorupload.net/file/0VD7N9WG/#!P0801_07_EIVOM_YARULB_NOMEKOP.part03.rar
http://www.mirrorupload.net/file/0FAZKZ1S/#!P0801_07_EIVOM_YARULB_NOMEKOP.part04.rar
http://www.mirrorupload.net/file/1YYZL0WL/#!P0801_07_EIVOM_YARULB_NOMEKOP.part05.rar
http://www.mirrorupload.net/file/1EZPHTZN/#!P0801_07_EIVOM_YARULB_NOMEKOP.part05.rar
http://www.mirrorupload.net/file/0CONQ73I/#!P0801_07_EIVOM_YARULB_NOMEKOP.part05.rar
http://www.mirrorupload.net/file/0RG86BG3/#!P0801_07_EIVOM_YARULB_NOMEKOP.part05.rar
http://www.mirrorupload.net/file/0O5EYOP2/#!P0801_07_EIVOM_YARULB_NOMEKOP.part06.rar
http://www.mirrorupload.net/file/0Y4B6HCT/#!P0801_07_EIVOM_YARULB_NOMEKOP.part06.rar
http://www.mirrorupload.net/file/AGILMKS1/#!P0801_07_EIVOM_YARULB_NOMEKOP.part07.rar
http://www.mirrorupload.net/file/1FSHGWRG/#!P0801_07_EIVOM_YARULB_NOMEKOP.part07.rar
http://www.mirrorupload.net/file/1FSHGWRG/#!P0801_07_EIVOM_YARULB_NOMEKOP.part07.rar
http://www.mirrorupload.net/file/31W07QUJ/#!P0801_07_EIVOM_YARULB_NOMEKOP.part07.rar
http://www.mirrorupload.net/file/0MYTHUZ2/#!P0801_07_EIVOM_YARULB_NOMEKOP.part07.rar
http://www.mirrorupload.net/file/UNIQPH7O/#!P0801_07_EIVOM_YARULB_NOMEKOP.part08.rar
http://www.mirrorupload.net/file/CFBKMIAP/#!P0801_07_EIVOM_YARULB_NOMEKOP.part09.rar
http://www.mirrorupload.net/file/XYDTZJGB/#!P0801_07_EIVOM_YARULB_NOMEKOP.part10.rar

Links Putlocker






























PASS:

BY JULIANSOLO


Mensaje Privado
2101 Visitas


FavoriteLoadingAñadir a favoritos


Categoria: Animés

RSS Seguir Feed RSS Comentarios | Temas de elvagolejandro

Comentarios

Deja tu comentario

Debes iniciar sesion para poder enviar un comentario.

Terminos y Condiciones - Politica de Privacidad - Report Abuse - DMCA