jun 7 2012

Thomas, Costa y B.J., tres estudiantes aparentemente anónimos deciden darse a conocer en su último año de secundaria con una fiesta inolvidable. Para asegurarse de que todo quedará para la posteridad, usan una cámara para documentar toda la historia de su triunfo. Pero la celebración que pensaron que sería perfecta, se sale de sus manos a todo vapor… aunque así es como se rompen los sueños, se manchan las reputaciones y nacen las leyendas.

TÍTULO ORIGINAL: Project X
OTROS TÍTULOS: Proyecto X
AÑO: 2012
DURACIÓN: 88 min.
PAÍS: USA
DIRECTOR: Nima Nourizadeh
GUIÓN: Matt Drake, Michael Bacall
MÚSICA: Varios
FOTOGRAFÍA: Ken Seng
REPARTO: Miles Teller, Oliver Cooper, Jonathan Daniel Brown, Kirby Bliss Blanton, Dax Flame, Nichole O’Connor, Thomas Mann, Alexis Knapp, Jillian Reynolds, Martin Klebba, Rick Shapiro, Caitlin Dulany, Peter MacKenzie
PRODUCTORA: Green Hat Films / Silver Pictures
GÉNERO: Comedia | Cine independiente USA

BRRip 720p | XviD | AC3 5.1 | 2.9 GB | Audios: Español Latino, Inglés | Subtítulos: Español | Comedia | 2012
Video
ID : 0
Format : MPEG-4 Visual
Format profile : Advanced Simple@L5
Format settings, BVOP : 2
Format settings, QPel : No
Format settings, GMC : No warppoints
Format settings, Matrix : Default (MPEG)
Codec ID : XVID
Codec ID/Hint : XviD
Duration : 1h 27mn
Bit rate : 3 797 Kbps
Width : 1 280 pixels
Height : 720 pixels
Display aspect ratio : 16:9
Frame rate : 23.976 fps
Color space : YUV
Chroma subsampling : 4:2:0
Bit depth : 8 bits
Scan type : Progressive
Compression mode : Lossy
Bits/(Pixel*Frame) : 0.172
Stream size : 2.33 GiB (79%)
Writing library : XviD 1.2.1 (UTC 2008-12-04)
Audio #1
ID : 1
Format : AC-3
Format/Info : Audio Coding 3
Mode extension : CM (complete main)
Codec ID : 2000
Duration : 1h 27mn
Bit rate mode : Constant
Bit rate : 384 Kbps
Channel(s) : 6 channels
Channel positions : Front: L C R, Side: L R, LFE
Sampling rate : 48.0 KHz
Bit depth : 16 bits
Compression mode : Lossy
Stream size : 241 MiB (8%)
Alignment : Split accross interleaves
Interleave, duration : 42 ms (1.00 video frame)
Interleave, preload duration : 500 ms
Audio #2
ID : 2
Format : AC-3
Format/Info : Audio Coding 3
Mode extension : CM (complete main)
Codec ID : 2000
Duration : 1h 27mn
Bit rate mode : Constant
Bit rate : 640 Kbps
Channel(s) : 6 channels
Channel positions : Front: L C R, Side: L R, LFE
Sampling rate : 48.0 KHz
Bit depth : 16 bits
Compression mode : Lossy
Stream size : 402 MiB (13%)
Alignment : Split accross interleaves
Interleave, duration : 42 ms (1.00 video frame)
Interleave, preload duration : 500 ms




Rapidgator

http://rapidgator.net/file/15703930/P.X.720p_Michel_Vai.part4.rar.html
http://rapidgator.net/file/15709620/P.X.720p_Michel_Vai.part1.rar.html
http://rapidgator.net/file/15709625/P.X.720p_Michel_Vai.part2.rar.html
http://rapidgator.net/file/15709627/P.X.720p_Michel_Vai.part3.rar.html

Bitshare

http://bitshare.com/files/shpat6kw/P.X.720p_Michel_Vai.part1.rar.html
http://bitshare.com/files/vj70jq76/P.X.720p_Michel_Vai.part2.rar.html
http://bitshare.com/files/5nj36hw3/P.X.720p_Michel_Vai.part3.rar.html
http://bitshare.com/files/rgxkuzwf/P.X.720p_Michel_Vai.part4.rar.html

Links Intercambiables


Mensaje Privado
3960 Visitas


FavoriteLoadingAñadir a favoritos


Categoria: Cine Independiente, Comedias

RSS Seguir Feed RSS Comentarios | Temas de michel_vai

Deja tu comentario

Debes iniciar sesion para poder enviar un comentario.

Terminos y Condiciones - Politica de Privacidad - Report Abuse - DMCA