sep 21 2011
http://www.assignmentx.com/wp-content/uploads/2011/08/RIO-3D.jpg

La acción transcurre en la espectacular ciudad de Río de Janeiro y en la exuberante selva tropical durante la fiesta más importante del año para los brasileños: el Carnaval. Los protagonistas son Blu, un ingenuo guacamayo que no sabe volar y que cree que es el último de su especie, y Jewel, una guacamaya salvaje y de espíritu libre. Ambos emprenderán una inesperada aventura en búsqueda de la libertad, acompañados por excéntricos amigos de los que aprenderán qué es la amistad, el amor y el coraje...

TÍTULO ORIGINAL Rio
AÑO 2011
DURACIÓN 96 min.
PAÍS [Estados Unidos]
DIRECTOR Carlos Saldanha
GUIÓN Don Rhymer
MÚSICA John Powell
FOTOGRAFÍA Animation
REPARTO Animation
PRODUCTORA Blue Sky Studios / Twentieth Century Fox Animation
GÉNERO Animación. Aventuras. Comedia. Infantil | Pájaros. 3-D

Video
ID : 1
Format : AVC
Format/Info : Advanced Video Codec
Format profile : [email protected]
Format settings, CABAC : Yes
Format settings, ReFrames : 2 frames
Format settings, GOP : M=3, N=15
Codec ID : V_MPEG4/ISO/AVC
Duration : 1h 35mn
Bit rate mode : Variable
Bit rate : 9 727 Kbps
Maximum bit rate : 11.2 Mbps
Width : 1 920 pixels
Height : 1 080 pixels
Display aspect ratio : 16:9
Frame rate : 23.976 fps
Color space : YUV
Chroma subsampling : 4:2:0
Bit depth : 8 bits
Scan type : Progressive
Bits/(Pixel*Frame) : 0.196
Stream size : 6.52 GiB (74%)
Title : Rio 3D Sbs 1080p 2011
Language : Spanish

Audio #1
ID : 2
Format : DTS
Format/Info : Digital Theater Systems
Codec ID : A_DTS
Duration : 1h 35mn
Bit rate mode : Constant
Bit rate : 755 Kbps
Channel(s) : 6 channels
Channel positions : Front: L C R, Side: L R, LFE
Sampling rate : 48.0 KHz
Bit depth : 24 bits
Compression mode : Lossy
Delay relative to video : 11ms
Stream size : 518 MiB (6%)
Title : Audio Castellano DTS
Language : Spanish

Audio #2
ID : 3
Format : DTS
Format/Info : Digital Theater Systems
Format profile : MA / Core
Codec ID : A_DTS
Duration : 1h 35mn
Bit rate mode : Variable
Bit rate : 1 561 Kbps / 1 510 Kbps
Channel(s) : 6 channels
Channel positions : Front: L C R, Side: L R, LFE
Sampling rate : 48.0 KHz
Bit depth : 24 bits
Compression mode : Lossless / Lossy
Title : Audio DTS-HD Ingles
Language : English

Audio #3
ID : 4
Format : AC-3
Format/Info : Audio Coding 3
Mode extension : CM (complete main)
Codec ID : A_AC3
Duration : 1h 35mn
Bit rate mode : Constant
Bit rate : 448 Kbps
Channel(s) : 6 channels
Channel positions : Front: L C R, Side: L R, LFE
Sampling rate : 48.0 KHz
Bit depth : 16 bits
Compression mode : Lossy
Stream size : 307 MiB (3%)
Title : Audio Castellano AC3
Language : Spanish

Audio #4
ID : 5
Format : AC-3
Format/Info : Audio Coding 3
Mode extension : CM (complete main)
Codec ID : A_AC3
Duration : 1h 35mn
Bit rate mode : Constant
Bit rate : 384 Kbps
Channel(s) : 6 channels
Channel positions : Front: L C R, Side: L R, LFE
Sampling rate : 48.0 KHz
Bit depth : 16 bits
Compression mode : Lossy
Delay relative to video : 1s 0ms
Stream size : 264 MiB (3%)
Title : Audio Latino AC3
Language : Spanish

Text #1
ID : 6
Format : PGS
Codec ID : S_HDMV/PGS
Codec ID/Info : The same subtitle format used on BDs/HD-DVDs
Title : Subtitulos Castellano Completos
Language : Spanish

Text #2
ID : 7
Format : PGS
Codec ID : S_HDMV/PGS
Codec ID/Info : The same subtitle format used on BDs/HD-DVDs
Title : Subtitulos Ingles Completos
Language : English

Text #3
ID : 8
Format : PGS
Codec ID : S_HDMV/PGS
Codec ID/Info : The same subtitle format used on BDs/HD-DVDs
Language : French

Text #4
ID : 9
Format : PGS
Codec ID : S_HDMV/PGS
Codec ID/Info : The same subtitle format used on BDs/HD-DVDs
Language : Dutch

Text #5
ID : 10
Format : PGS
Codec ID : S_HDMV/PGS
Codec ID/Info : The same subtitle format used on BDs/HD-DVDs
Language : Portuguese




Tamaño de descarga: 8.8 GB
Cantidad de archivos: 19 partes (18 x 500 MB | 1 x 200 MB)
Formato de las partes: RAR


http://filepost.com/files/ma289487/Rio.2011.1080p.3D.MauricioDVD.part01.rar/
http://filepost.com/files/84583aa1/Rio.2011.1080p.3D.MauricioDVD.part02.rar/
http://filepost.com/files/46731be7/Rio.2011.1080p.3D.MauricioDVD.part03.rar/
http://filepost.com/files/93b9877a/Rio.2011.1080p.3D.MauricioDVD.part04.rar/
http://filepost.com/files/576456ef/Rio.2011.1080p.3D.MauricioDVD.part05.rar/
http://filepost.com/files/76dba585/Rio.2011.1080p.3D.MauricioDVD.part06.rar/
http://filepost.com/files/3deace22/Rio.2011.1080p.3D.MauricioDVD.part07.rar/
http://filepost.com/files/7d335a7f/Rio.2011.1080p.3D.MauricioDVD.part08.rar/
http://filepost.com/files/7mm461da/Rio.2011.1080p.3D.MauricioDVD.part09.rar/
http://filepost.com/files/a295m7bf/Rio.2011.1080p.3D.MauricioDVD.part10.rar/
http://filepost.com/files/53dcd7b9/Rio.2011.1080p.3D.MauricioDVD.part11.rar/
http://filepost.com/files/cc9m9b1c/Rio.2011.1080p.3D.MauricioDVD.part12.rar/
http://filepost.com/files/42c316bd/Rio.2011.1080p.3D.MauricioDVD.part13.rar/
http://filepost.com/files/ac4m9efd/Rio.2011.1080p.3D.MauricioDVD.part14.rar/
http://filepost.com/files/f3d294cb/Rio.2011.1080p.3D.MauricioDVD.part15.rar/
http://filepost.com/files/edec6362/Rio.2011.1080p.3D.MauricioDVD.part16.rar/
http://filepost.com/files/c4333683/Rio.2011.1080p.3D.MauricioDVD.part17.rar/
http://filepost.com/files/bc7a6691/Rio.2011.1080p.3D.MauricioDVD.part18.rar/
http://filepost.com/files/3332e13m/Rio.2011.1080p.3D.MauricioDVD.part19.rar/

Pass: http://mauriciodvd.blogspot.com/


Que son los links intercambiables? Son los mismos archivos, de películas en este caso, en distintos servidores. Cual es su función principal? Reducir el tiempo de espera entre descarga y descarga, y además por si falla algún servidor, tienen otro a su disposición. Ejemplo: Pueden descargar la parte 1 de Uploadstation, la 2 de Fileserve, la 3 de Bitshare, la 4 de Filekeen, la 5 de Wupload, etc. intercalando las descargas. Es una muy buena opción para los que no disponen de cuentas Premium y además para que no esten esperando tanto tiempo en un solo servidor. De esta manera tendrán la peli más rápido y además para su mayor comodidad habrá pocos links para descargar (500 MB por Parte!!!!!) así pueden hacer lo que les expliqué en el ejemplo (descargar un link por cada servidor)

Mensaje Privado
55502 Visitas


FavoriteLoadingAñadir a favoritos


Categoria: Animación, Aventuras, Comedias

RSS Seguir Feed RSS Comentarios | Temas de facuu555

Comentarios

Deja tu comentario

Debes iniciar sesion para poder enviar un comentario.

Terminos y Condiciones - Politica de Privacidad - Report Abuse - DMCA