abr 30 2012

S7al.jpg

8vXsm.png
DIRECTOR Robert Rodriguez
GUIÓN Robert Rodriguez
MÚSICA Robert Rodriguez, Carl Thiel
FOTOGRAFÍA Jimmy Lindsey
REPARTO Jessica Alba, Joel McHale, Alexa Vega, Daryl Sabara, Rowan Blanchard, Mason Cook, Jeremy Piven, Antonio Banderas, Danny Trejo
PRODUCTORA Dimension Films / Troublemaker Studios
GÉNERO Aventuras. Acción. Comedia | Cine familiar. 3-D

1gmG8.png
Robert Rodriguez vuelve a ponerse tras las cámaras para dirigir ‘Spy Kids 4′, un reinicio de la saga, con otros personajes.

xSVvF.png
BAx.jpg

General
Complete name : E:\NL8D2-USER8\Sikids.JonUp.avi
Format : AVI
Format/Info : Audio Video Interleave
File size : 700 MiB
Duration : 1h 27mn
Overall bit rate mode : Variable
Overall bit rate : 1 114 Kbps
Movie name : Sikids.JonUp
Director : Subido Por JonUp
Copyright : Subido Por JonUp

Video
ID : 0
Format : MPEG-4 Visual
Format profile : Advanced Simple@L5
Format settings, BVOP : 1
Format settings, QPel : No
Format settings, GMC : No warppoints
Format settings, Matrix : Default (MPEG)
Muxing mode : Packed bitstream
Codec ID : XVID
Codec ID/Hint : XviD
Duration : 1h 27mn
Bit rate : 921 Kbps
Width : 624 pixels
Height : 352 pixels
Display aspect ratio : 16:9
Frame rate : 23.976 fps
Color space : YUV
Chroma subsampling : 4:2:0
Bit depth : 8 bits
Scan type : Progressive
Compression mode : Lossy
Bits/(Pixel*Frame) : 0.175
Stream size : 578 MiB (83%)
Writing library : XviD 1.2.1 (UTC 2008-12-04)

Audio
ID : 1
Format : MPEG Audio
Format version : Version 1
Format profile : Layer 3
Mode : Joint stereo
Mode extension : MS Stereo
Codec ID : 55
Codec ID/Hint : MP3
Duration : 1h 27mn
Bit rate mode : Variable
Bit rate : 183 Kbps
Channel(s) : 2 channels
Sampling rate : 48.0 KHz
Compression mode : Lossy
Stream size : 113 MiB (16%)
Alignment : Aligned on interleaves
Interleave, duration : 24 ms (0.58 video frame)
Interleave, preload duration : 530 ms
Writing library : LAME3.98a
Encoding settings : -m j -V 4 -q 3 -lowpass 18.6 --abr 183

baXqe.png

30qFt.png
http://rapidgator.net/file/8721136/Sikids.JonUp.avi.html

cZQby.png
http://freakshare.com/files/4974lmmb/Sikids.JonUp.avi.html

0uRFW.png


Mensaje Privado
1358 Visitas


FavoriteLoadingAñadir a favoritos


Categoria: Acción, Aventuras, Comedias

RSS Seguir Feed RSS Comentarios | Temas de JonUp

Deja tu comentario

Debes iniciar sesion para poder enviar un comentario.

Terminos y Condiciones - Politica de Privacidad - Report Abuse - DMCA