dic 14 2012

TÍTULO ORIGINAL
Ted

SINOPSIS
Cuando John Bennett (Mark Wahlberg) era pequeño, deseaba que su osito de peluche Ted fuera un oso de verdad y, por desgracia, su sueño se hizo realidad. Más de veinte años después, Ted sigue con John y saca de quicio a su novia Lori, que empieza a perder la paciencia. Para colmo, a John no parece preocuparle su futuro profesional y se pasa la vida fumando porros con Ted. John, por su parte, intenta alcanzar la madurez, pero parece que para ello le resulta indispensable la ayuda de Ted...

ELENCO
Mark Wahlberg • Mila Kunis • Seth MacFarlane • Giovanni Ribisi • Laura Vandervoort • Joel McHale • Patrick Warburton • Jessica Stroup

AÑO DE ESTRENO: 2012
DURACIÓN: 93m
DIRECTOR: Seth MacFarlane
GÉNERO: Comedia. Fantástico | Comedia negra. Osos
DISTRIBUIDORA: 
Universal Pictures / Media Rights Capital

Formato: Avi
Calidad: TsScreener
Peso: 847
Idioma: Español Latino
Subitutulos: No

MEDIA INFO

General
Complete name  : /disco4/lareneu1/public_html/rapidleech/files/Descargas-Directas/Ted.2012.UNRATED.DVDR.Latino.avi
Format                                   : AVI
Format/Info                              : Audio Video Interleave
File size                                : 847 MiB
Duration                                 : 1h 52mn
Overall bit rate                         : 1 055 Kbps
Writing application                      : Lavf52.46.0

Video
ID                                       : 0
Format                                   : MPEG-4 Visual
Format profile                           : Simple@L1
Format settings, BVOP                    : No
Format settings, QPel                    : No
Format settings, GMC                     : No warppoints
Format settings, Matrix                  : Default (H.263)
Codec ID                                 : DIVX
Codec ID/Info                            : Project Mayo
Codec ID/Hint                            : DivX 4
Duration                                 : 1h 52mn
Bit rate                                 : 915 Kbps
Width                                    : 720 pixels
Height                                   : 304 pixels
Display aspect ratio                     : 16:9
Frame rate                               : 23.976 fps
Color space                              : YUV
Chroma subsampling                       : 4:2:0
Bit depth                                : 8 bits
Scan type                                : Progressive
Compression mode                         : Lossy
Bits/(Pixel*Frame)                       : 0.174
Stream size                              : 735 MiB (87%)
Writing library                          : Lavc52.45.0

Audio
ID                                       : 1
Format                                   : MPEG Audio
Format version                           : Version 1
Format profile                           : Layer 3
Mode                                     : Joint stereo
Codec ID                                 : 55
Codec ID/Hint                            : MP3
Duration                                 : 1h 52mn
Bit rate mode                            : Constant
Bit rate                                 : 128 Kbps
Channel(s)                               : 2 channels
Sampling rate                            : 44.1 KHz
Compression mode                         : Lossy
Stream size                              : 103 MiB (12%)
Alignment                                : Aligned on interleaves
Interleave, duration                     : 26 ms (0.63 video frame)
Interleave, preload duration             : 26 ms
Writing library                          : LAME3.98.2

CLICK AQUI PARA DESCARGAR


Mensaje Privado
16882 Visitas


FavoriteLoadingAñadir a favoritos


Categoria: Comedias, Fantasia

RSS Seguir Feed RSS Comentarios | Temas de lord_anime

Comentarios

Deja tu comentario

Debes iniciar sesion para poder enviar un comentario.

Terminos y Condiciones - Politica de Privacidad - Report Abuse - DMCA