jul 8 2010

Bueno gente, este es mi primer post, va dedicado a todo hincha charrua que ha

acompañado a nuestra selección a lo largo de todo el mundial Sudafrica 2010.

Este partido lo traigo como regalo y recuerdo para todos los uruguyos y no urguayos que han tenido sus esperanzas futboleras renovadas, despues de tantos

años de sufrir esperando buenos resultados , que hoy, es realidad y lo disfruta todo un país. No llegamos a la gran final, pero no importa, hoy la celeste de : Muslera, Castillo, Lugano, Godin, Fucile, Gargano, Vitorino, Cavani, Egure, Suarez, Forlan, Alvaro Pereira, Loco Abreu, Lodeiro, Diego Perez, Mono Pereira, Arevalo Rios, Nacho Gonzalez, Escoti, Flaco Fernandez, Sebastian Fernandez, Caseres, Martin Siva y claro si olvidarme de el gran DT Oscar Washigton Tabarez, que si el y su directriz esto muchacho no hubieran llegado tan lejos y traido tantas lagrimas de alegrias a todo un país. Gracias de todo corazón y los esperamos pronto para darles una calurosa bienvenida.

Bueno, me extendí un poco, casi llegue a lagrimas nuevamente, ... ya perdí la cuenta de cuantas veces me han tomado las lagrimas este último mes... Si mas que decir que descarguen y disfruten, les dejo los 6 links de un archivo dividido con Winrar de un video original en formato RMVB de 2 hs y 55 min.

Está todo presente, todo el partido, el alargue y por supesto los penales, en audio

español gravados de mi placa de captura .

No me importa si comentan o no, pero me parece um momento único que hay que guardalo para el resto de nuestra vida.

Saludos Uruguayos ... y mil gracias Dios por ser Uruguayo...

ACA VAN LOS DATOS DEL VIDEO:

General
Complete name                    : 5ºP-Uruguay 1(5) - Ghana 1(3)(Hacia Semifinales)02-07.rmvb
Format                           : RealMedia
File size                        : 545 MiB
Duration                         : 2h 45mn
Overall bit rate                 : 451 Kbps

Video
ID                               : 0
Format                           : RealVideo 4
Codec ID                         : RV40
Codec ID/Info                    : Based on AVC (H.264), Real Player 9
Duration                         : 2h 45mn
Bit rate                         : 355 Kbps
Width                            : 320 pixels
Height                           : 240 pixels
Display aspect ratio             : 4/3
Frame rate                       : 29.000 fps
Resolution                       : 12 bits
Bits/(Pixel*Frame)               : 0.159
Stream size                      : 421 MiB (77%)

Audio
ID                               : 1
Format                           : Cooker
Codec ID                         : cook
Codec ID/Info                    : Based on G.722.1, Real Player 6
Duration                         : 2h 45mn
Bit rate                         : 96.5 Kbps
Channel(s)                       : 2 channels
Sampling rate                    : 44.1 KHz
Resolution                       : 16 bits
Stream size                      : 114 MiB (21%)


Links partido Uruguay Vs Ghana (558,063 kb) formato rmvb

http://www.megaupload.com/?d=E9KVZJJX

http://www.megaupload.com/?d=LE305SY0

http://www.megaupload.com/?d=9HURMFUZ

http://www.megaupload.com/?d=0G14Q5TY

http://www.megaupload.com/?d=A19COGAL

http://www.megaupload.com/?d=KHQTBDVY

NO TIENE PASS, PARA PODER VERLO DEBEN UNIRLO CON EL WINRAR Y TENER EL REAL PLAYER INSTALADO O INSTALAR ALGUN PAQUETE DE K-LITE CODEC PACK.


Mensaje Privado
7645 Visitas


FavoriteLoadingAñadir a favoritos


Categoria: Deportivas

RSS Seguir Feed RSS Comentarios | Temas de judacala

Comentarios

  • hola sabes que el link 5 se me tranca. es el unico que me falta.

  • loco sos un capo!!! para vos flechita verde y nunca olvidemos este partido... para mi el mejor de la historia...

  • Estaria bueno si puedieras subir alguno mas si tenes o de donde se pueden conseguir los otros. Saludos
    PD: El link 5 funciona lo mas bien

  • Realmente sos un capo....sabes como vamos a disfrutar este partido en unos años y tenerlo va a ser algo q vamos a agradecer en el futuro. Ad+ con relatores uruguayos!!! Algo q parece no importar pero q en si le da otro color. Muy buen aporte, GRACIAS!

  • buenisimo el aporte Judacala, pero por favor, RESUBITE EL LINK 5 que está roto, solo te deja bajar 7mb, luego ya no sigue bajando mas. Por favor resubilo rápido que me muero por mirar este partido.VAMO’ TODAVIAAAAAA

  • Gracias gente, disfruntenlo, esta historia es nuestra, la vivimos con inmensa alegria y nadie nos lo puede quitar. Salud Uruguay

  • judacala eres grande mil gracias por el aporte y..... una imagen vale mas que mil palabras.

  • VAMO ARRIBA LA CELESTE!!!!!!!!! URUGUAY NOMAAAAAA!!!!!!!!!!!!!!

Deja tu comentario

Debes iniciar sesion para poder enviar un comentario.

Terminos y Condiciones - Politica de Privacidad - Report Abuse - DMCA