oct 13 2011

Los Padrinos Magicos DVDRip  Dual Latino-Ingles [WU-UL]


Título original: A Fairly Odd Movie: Grow Up, Timmy Turner!
Otros títulos: Los padrinos mágicos – La película ¡Momento de crecer, Timmy Turner! En (Latinoamérica) y Los padrinos mágicos – La película ¡Timmy Turner creció! En (España)
Categoría: Película
Genero: Comedia, Fantasía, Familia, Personajes reales.
Duración: 57:21 Minutos.
Año: 2011
País: Estados Unidos

Trece años han pasado desde que Timmy Turner (Drake Bell) se reunió con su padrinos mágicos, Cosmo y Wanda, pero nada ha cambiado para Timmy, quien todavía vive en casa con sus padres, asiste a la clase del Sr. Crocker (David Lewis), aún sigue en 5to año de primaria, y monta bicicleta para llegar a la escuela.

El paro en el desarrollo de Timmy Turner se debe a su deseo de mantener con él a sus padrinos durante tanto tiempo como sea posible. “Las Reglas” establecen que todos los niños finalmente tienen que renunciar a sus padrinos mágicos cuando cumplen una edad reglamentaria y por ende son adultos, pero Timmy ha encontrado una solución para evitar esta regla, actuando como un niño por el tiempo que sea posible para aprovechar este “hueco legal” en las Reglas.

Calidad: DVDRip
Idioma: Dual Latino/Ingles

Format : AVI

Format/Info : Audio Video Interleave

File size : 534 MiB

Duration : 57mn 21s

Overall bit rate : 1 301 Kbps

Writing application : VirtualDubMod 1.5.10.2 (build 2542/release)

Writing library : VirtualDubMod build 2542/release

Video #0

ID : 0

Format : MPEG-4 Visual

Format profile : Simple@L3

Format settings, BVOP : No

Format settings, QPel : No

Format settings, GMC : No warppoints

Format settings, Matrix : Default (H.263)

Codec ID : XVID

Codec ID/Hint : XviD

Duration : 57mn 21s

Bit rate : 1 028 Kbps

Width : 624 pixels

Height : 352 pixels

Display aspect ratio : 16:9

Frame rate : 29.970 fps

Resolution : 24 bits

Colorimetry : 4:2:0

Scan type : Progressive

Bits/(Pixel*Frame) : 0.156

Stream size : 422 MiB (79%)

Writing library : XviD 1.2.1 (UTC 2008-12-04)

Audio #1

ID : 1

Format : MPEG Audio

Format version : Version 1

Format profile : Layer 3

Codec ID : 55

Codec ID/Hint : MP3

Duration : 57mn 21s

Bit rate mode : Constant

Bit rate : 128 Kbps

Channel(s) : 2 channels

Sampling rate : 32.0 KHz

Resolution : 16 bits

Stream size : 52.5 MiB (10%)

Alignment : Aligned on interleaves

Interleave, duration : 36 ms (1.08 video frame)

Interleave, preload duration : 504 ms

Audio #2

ID : 2

Format : MPEG Audio

Format version : Version 1

Format profile : Layer 3

Codec ID : 55

Codec ID/Hint : MP3

Duration : 57mn 21s

Bit rate mode : Constant

Bit rate : 128 Kbps

Channel(s) : 2 channels

Sampling rate : 32.0 KHz

Resolution : 16 bits

Stream size : 52.5 MiB (10%)

Alignment : Aligned on interleaves

Interleave, duration : 36 ms (1.08 video frame)

Interleave, preload duration : 504 ms



LINK INTERCAMBIABLES DE 400MB

http://ul.to/3nzgcf9x/Padrinos.Magicos.Movie.2011.theone1515.part1.rar

http://ul.to/ofcgxsar/Padrinos.Magicos.Movie.2011.theone1515.part2.rar

http://www.wupload.com/file/200011983

http://www.wupload.com/file/200007247

Acacia[2011][DVDRip-Coreano-Subt Lat.][WU-UL]


TÍTULO ORIGINAL: Acacia
AÑO: 2003
DURACIÓN: 103 min.
PAÍS: Corea del Sur
DIRECTOR: Park Ki-hyeong (AKA Park Gi-hyeong)
GUIÓN: Park Ki-hyeong (AKA Park Gi-hyeong)
MÚSICA: Choi Man-Sik
FOTOGRAFÍA: Oh Hyeon-Je
REPARTO: Hye-jin Shim, Jin-geun Kim, Oh-bin Mun, Na-yoon Jeong
PRODUCTORA: Dada Films
GÉNERO: Terror. Thriller | Sobrenatural

Una pareja que no puede tener hijos decide adoptar a un niño, bastante callado y formal, que se encapricha de un árbol de Acacia que crece solitario en su jardín, quedándose a solas junto a él día y noche. Más tarde el matrimonio descubre por qué el niño quiere más al árbol que a ellos mismos; según él, ese árbol es su madre...

General

Format                          : MPEG-PS

File size                        : 768 MiB

Duration                         : 1h 42mn

Overall bit rate                 : 1 044 Kbps

Writing library                  : encoded by TMPGEnc 4.0 XPress Version. 4.3.1.222

Video

ID                               : 224 (0xE0)

Format                           : MPEG Video

Format version                   : Version 1

Format settings, BVOP            : Yes

Format settings, Matrix          : Default

Duration                         : 1h 42mn

Bit rate mode                    : Variable

Bit rate                         : 900 Kbps

Width                            : 352 pixels

Height                           : 240 pixels

Display aspect ratio             : 16:9

Frame rate                       : 29.970 fps

Standard                         : NTSC

Color space                      : YUV

Bit depth                        : 8 bits

Scan type                        : Progressive

Bits/(Pixel*Frame)               : 0.355

Stream size                      : 659 MiB (86%)

Writing library                  : TMPGEnc XPress 4.3.1.222

Audio

ID                               : 192 (0xC0)

Format                           : MPEG Audio

Format version                   : Version 1

Format profile                   : Layer 2

Duration                         : 1h 42mn

Bit rate mode                    : Constant

Bit rate                         : 128 Kbps

Channel(s)                       : 2 channels

Sampling rate                    : 48.0 KHz

Stream size                      : 94.2 MiB (12%)



LINK INTERCAMBIABLES DE 400MB

http://ul.to/35ldu2mo/Acacia-Subtitulada-theone1515.part1.rar

http://ul.to/ocvvz5hz/Acacia-Subtitulada-theone1515.part2.rar

http://www.wupload.com/file/200029716

http://www.wupload.com/file/200029717

African Cats: Kingdom of Courage.2011.DvdRip.XviD-Audio.Latino [WU-UL]


Título original: African Cats: Kingdom of Courage
País: USA
AÑO: 2011
Género: Documental | Animales
Director: Alastair Fothergill, Keith Scholey
Reparto: Muchos leones =)

Documental centrado en dos familias de felinos y en cómo se les enseña a los cachorros la forma de afrontar la vida salvaje.

1200 Mb
XviD 640×352 @ 1964kbps @ 25fps | AC3 448 Kbps
Calidad: Dvdrip
Audio: Latino
Subtitulos: No



LINK INTERCAMBIABLES DE 400MB

http://ul.to/g2957jlu/African.Cats.2011.DVDRip-theone1515.part3.rar

http://ul.to/6av74bya/African.Cats.2011.DVDRip-theone1515.part4.rar

http://ul.to/timo7zv0/African.Cats.2011.DVDRip-theone1515.part2.rar

http://ul.to/2m31i6ak/African.Cats.2011.DVDRip-theone1515.part1.rar

http://www.wupload.com/file/287959131

http://www.wupload.com/file/287959128

http://www.wupload.com/file/287959136

http://www.wupload.com/file/251424344

http://www.filesonic.com/file/2305820451/African.Cats.2011.DVDRip-theone1515.part1.rar

http://www.filesonic.com/file/2305820421/African.Cats.2011.DVDRip-theone1515.part2.rar

http://www.filesonic.com/file/2305820481/African.Cats.2011.DVDRip-theone1515.part3.rar

http://www.filesonic.com/file/2305813471/African.Cats.2011.DVDRip-theone1515.part4.rar

Angelina Ballerina: The Shining Star Trophy [DvdRp][Latino][FS-WU-UL]


Titulo: Angelina Ballerina: The Shining Star Trophy
Director:
Guion:
Genero: Animacion, familiar
País: USA
Año: 2011
Reparto:

Angelina brilla más que nunca en esta nueva película! La Sra. Mimi anuncia que no va a ser un espectáculo de gran talento en el Camembert de la Academia - y el ganador se irá con un Trofeo Estrella Brillante. Sin embargo, cuando Angelina se sale de su camino para ayudar a sus amigos a encontrar sus talentos especiales, tiene poco tiempo para trabajar en su propia rutina. Con los famosos invitados juez Perry parmesano decidiendo el ganador, cada minuto de la prácticacuenta. Cuando se levanta el telón, quien será el centro y ganara el Trofeo Estrella Brillante? Mira como Angelina sigue su corazón para convertirse en una verdadera estrella brillante!

Calidad                          : DVDRip

Idioma                           : Latino

Subtitulo                        : No

Des/Compresor                    : WinRar

IMDB                             : N/A

General

Complete name                    : Angelina 2011.mpg

Format                           : MPEG-PS

File size                        : 488 MiB

Duration                         : 55mn 47s

Overall bit rate                 : 1 223 Kbps

Writing library                  : encoded by TMPGEnc (ver. 2.521.58.169)

Video

ID                               : 224 (0xE0)

Format                           : MPEG Video

Format version                   : Version 1

Format settings, BVOP            : Yes

Format settings, Matrix          : Custom

Duration                         : 55mn 47s

Bit rate mode                    : Variable

Bit rate                         : 1 071 Kbps

Width                            : 352 pixels

Height                           : 240 pixels

Display aspect ratio             : 3:2

Frame rate                       : 29.970 fps

Standard                         : NTSC

Color space                      : YUV

Bit depth                        : 8 bits

Scan type                        : Progressive

Compression mode                 : Lossy

Bits/(Pixel*Frame)               : 0.423

Stream size                      : 427 MiB (88%)

Writing library                  : TMPGEnc 2.521.58.169

Audio

ID                              : 192 (0xC0)

Format                           : MPEG Audio

Format version                   : Version 1

Format profile                   : Layer 2

Duration                         : 55mn 47s

Bit rate mode                    : Constant

Bit rate                         : 128 Kbps

Channel(s)                       : 2 channels

Sampling rate                    : 44.1 KHz

Compression mode                 : Lossy

Stream size                      : 51.1 MiB (10%)



LINK INTERCAMBIABLES DE 400MB

http://ul.to/7thi0kcg/Angelina Ballerina - The Shining Star Trophy DvdRip Kvcd Latin-theone1515.part1.rar

http://ul.to/k9kwvc66/Angelina Ballerina - The Shining Star Trophy DvdRip Kvcd Latin-theone1515.part2.rar

http://www.wupload.com/file/287962079

http://www.wupload.com/file/287961944

http://www.filesonic.com/file/2305878401/Angelina Ballerina - The Shining Star Trophy DvdRip Kvcd Latin-theone1515.part1.rar

http://www.filesonic.com/file/2305873671/Angelina Ballerina - The Shining Star Trophy DvdRip Kvcd Latin-theone1515.part2.rar

Barbie Princess Charm School [2011][Animacion][DVDRip-Latino][WU-UL]


Título: Barbie: Escuela de princesas
Titulo: Barbie Princess Charm School
Año: 2011
País: USA
Genero: Animacion

En esta edición de Mattel, Barbie hará el papel de Bleer
una chica normal que esta invitada a formar parte de una escuela muy prestigiada
“LA ESCUELA PARA PRINCESAS”.
Bleer tendrá que aprender a ser una princesa para poder graduarse.
Con la ayuda de sus amigas y un poco de magia,
Bleer aprenderá a que, una princesa no solo tiene que ser hermosa, si no que tiene que tener;
Actitud, valor y mucha confianza!
Y que la verdadera princesa la llevamos en el corazón.

General

Formato                          : MPEG-PS

Tamaño del archivo               : 784MB

Duración                         : 1h 19min.

Tasa de bits total               : 1 375Kbps

Video

ID                               : 224 (0xE0)

Formato                          : MPEG Video

Formato de la versión            : Version 1

Ajustes del formato, BVOP        : Si

Ajustes del formato, Matrix      : Personlizado

Duración                         : 1h 19min.

Tasa de bits                     : 1 124Kbps

Tasa de bits máxima              : 1 132Kbps

Ancho                            : 352pixeles

Alto                             : 240pixeles

Relación de aspecto              : 3:2

Velocidad de cuadro              : 29,970fps

Estándar                         : NTSC

ColorSpace                       : YUV

BitDepth/String                  : 8bits

Tipo de exploración              : Progresivo

Bits/(Pixel*cuadro)              : 0.444

Tamaño de pista                  : 641MB (82%)

Audio

ID                               : 192 (0xC0)

Formato                          : MPEG Audio

Formato de la versión            : Version 1

Formato del perfil               : Layer 2

Duración                         : 1h 19min.

Tipo de tasa de bits             : Constante

Tasa de bits                     : 224Kbps

Canal(es)                        : 2canales

Velocidad de muestreo            : 44,1KHz

Tamaño de pista                  : 128MB (16%)



LINK INTERCAMBIABLES DE 400MB

http://ul.to/spo7dcg4/Barbie.Princess.Charm.School.DvdRip.KVCD.Latino-theone1515.part1.rar

http://ul.to/cc30p3m9/Barbie.Princess.Charm.School.DvdRip.KVCD.Latino-theone1515.part2.rar

http://www.wupload.com/file/200239501

http://www.wupload.com/file/200239958

http://www.filesonic.com/file/2305904711/Barbie.Princess.Charm.School.DvdRip.KVCD.Latino-theone1515.part1.rar

http://www.filesonic.com/file/2305904671/Barbie.Princess.Charm.School.DvdRip.KVCD.Latino-theone1515.part2.rar

Barney Big World Adventure 2011 KVCD [Latino][WU-UL]


Es un viaje super de dinasaurous proporciones cuando Barney y sus amigos
parque tomar un paseo en globo alrededor del mundo en el Barney todo
nuevo: World Adventure Big - The Movie.

General

Formato                          : MPEG-PS

Tamaño del archivo               : 770MB

Duración                         : 1h 3min.

Modo de tasa de bits             : Variable

Tasa de bits total               : 1 703Kbps

Librería de codificación         : encoded by TMPGEnc 4.0 XPress Version. 4.3.1.222

Video

ID                               : 224 (0xE0)

Formato                          : MPEG Video

Formato de la versión            : Version 1

Ajustes del formato, BVOP        : Si

Ajustes del formato, Matrix      : Personlizado

Duración                         : 1h 3min.

Tipo de tasa de bits             : Variable

Tasa de bits                     : 1 541Kbps

Tasa de bits máxima              : 1 550Kbps

Ancho                            : 352pixeles

Alto                             : 240pixeles

Relación de aspecto              : 4:3

Velocidad de cuadro              : 29,970fps

Estándar                         : NTSC

ColorSpace                       : YUV

BitDepth/String                  : 8bits

Tipo de exploración              : Progresivo

Bits/(Pixel*cuadro)              : 0.609

Tamaño de pista                  : 697MB (90%)

Librería de codificación         : TMPGEnc XPress 4.3.1.222

Audio

ID                               : 192 (0xC0)

Formato                          : MPEG Audio

Formato de la versión            : Version 1

Formato del perfil               : Layer 2

Duración                         : 1h 3min.

Tipo de tasa de bits             : Constante

Tasa de bits                     : 128Kbps

Canal(es)                        : 2canale

Velocidad de muestreo            : 48,0KHz

Tamaño de pista                  : 57,8MB (8%)



LINK INTERCAMBIABLES DE 400MB

http://ul.to/bjf8bu3a/Barney Big World Adventure DVDRip[Latino]-theone1515.part1.rar

http://ul.to/s48kd7r7/Barney Big World Adventure DVDRip[Latino]-theone1515.part2.rar

http://www.wupload.com/file/200025405

http://www.wupload.com/file/200025424

Bridesmaids [2011][DVDRip-Latino][WU-UL]


TÍTULO ORIGINAL: Bridesmaids
AÑO: 2011
DURACIÓN: 128 min.
PAÍS: Estados Unidos
DIRECTOR: Paul Feig
GUIÓN: Kristen Wiig, Annie Mumolo
MÚSICA: Michael Andrews
FOTOGRAFÍA: Robert D. Yeoman
REPARTO: Kristen Wiig, Rose Byrne, Jon Hamm, Melissa McCarthy, Ellie Kemper, Chris O’Dowd, Maya Rudolph, Matt Lucas, Jill Clayburgh, Johnny Yong Bosch
PRODUCTORA: Apatow Productions / Universal Pictures
GÉNERO: Comedia | Bodas

Annie (Kristen Wiig) es una treintañera soltera del Medio Oeste de Estados Unidos, y con un registro muy escaso de novios, a la que su mejor amiga Lillian (Maya Rudolph) le pide que sea su dama de honor. Sin embargo, aunque nunca ha hecho ese trabajo, se esfuerza por ser la snob y la rica dama de honor en la fiesta anterior a la boda, mientras que una de las mejores amigas de Lillian es la dama de honor del infierno (Rose Byrne), que intenta arrebatarle las tareas de honor a la inexperta Annie.

General

Formato                          : MPEG-PS

Tamaño del archivo               : 777MB

Duración                         : 2h 10min.

Tasa de bits total               : 833Kbps

Video

ID                               : 224 (0xE0)

Formato                          : MPEG Video

Formato de la versión            : Version 1

Ajustes del formato, BVOP        : Si

Ajustes del formato, Matrix      : Personlizado

Duración                         : 2h 10min.

Tipo de tasa de bits             : Variable

Tasa de bits                     : 689Kbps

Ancho                            : 352pixeles

Alto                             : 240pixeles

Relación de aspecto              : 16:9

Velocidad de cuadro              : 29,970fps

Estándar                         : NTSC

ColorSpace                       : YUV

BitDepth/String                  : 8bits

Tipo de exploración              : Progresivo

Bits/(Pixel*cuadro)              : 0.272

Tamaño de pista                  : 642MB (83%)

Audio

ID                              : 192 (0xC0)

Formato                          : MPEG Audio

Formato de la versión            : Version 1

Formato del perfil               : Layer 2

Duración                        : 2h 10min.

Tipo de tasa de bits             : Constante

Tasa de bits                     : 128Kbps

Canal(es)                        : 2canales

Velocidad de muestreo            : 44,1KHz

Tamaño de pista                  : 119MB (15%)



LINK INTERCAMBIABLES DE 400MB

http://ul.to/94lfnds0/Bridesmaids.UNRATED.BrRip.KVCD.Lat-theone1515.part1.rar

http://ul.to/aeof6eli/Bridesmaids.UNRATED.BrRip.KVCD.Lat-theone1515.part2.rar

http://www.wupload.com/file/200150106

http://www.wupload.com/file/200150105

http://www.filesonic.com/file/2305929981/Bridesmaids.UNRATED.BrRip.KVCD.Lat-theone1515.part1.rar

http://www.filesonic.com/file/2305929961/Bridesmaids.UNRATED.BrRip.KVCD.Lat-theone1515.part2.rar

Cachorros Embrujados 2011 Dvdrip Latino [WU-UL]


Título original: Spooky Buddies
Género: Comedia/Familiar
Duración: 88 Minutos
País: USA, Canadá
Año: 2011
Dirección: Robert Vince
Producción: Anna McRoberts, Robert Vince
Guión: Anna McRoberts, Robert Vince
Fotografía: Mike Southon
Música: Brahm Wenger
Reparto: Sierra McCormick, Harland Williams, Elisa Donovan

Los cachorros hablantines estan de nuevo en una nueva película que les lleva atraves de la ciudad a una mansión misteriosa en la que algo muy misterioso está sucediendo. En una carrera contra un perro no muy bueno, Los amigos y sus nuevos amigos Pip, Zelda, Rodney y Skip, deben detener a Warwick el brujo y salvar al mundo de sus actos malvados.

Video

ID                               : 224 (0xE0)

Format                           : MPEG Video

Format version                   : Version 1

Format settings, BVOP            : Yes

Format settings, Matrix          : Default

Duration                         : 1h 28mn

Bit rate mode                    : Constant

Bit rate                         : 1 092 Kbps

Width                            : 352 pixels

Height                           : 240 pixels

Display aspect ratio             : 16:9

Frame rate                       : 29.970 fps

Standard                         : NTSC

Resolution                       : 8 bits

Scan type                        : Progressive

Bits/(Pixel*Frame)               : 0.431

Stream size                      : 685 MiB (88%)

Audio

ID                               : 192 (0xC0)

Format                           : MPEG Audio

Format version                   : Version 1

Format profile                   : Layer 2

Duration                         : 1h 28mn

Bit rate mode                    : Constant

Bit rate                         : 128 Kbps

Channel(s)                       : 2 channels

Sampling rate                    : 44.1 KHz

Stream size                      : 81.0 MiB (10%)



LINK INTERCAMBIABLES DE 400MB

http://ul.to/bdjztudn/CACHORROS EMBRUJADOS-theone1515.part1.rar

http://ul.to/pi6l1ic4/CACHORROS EMBRUJADOS-theone1515.part2.rar

http://www.wupload.com/file/200003713

http://www.wupload.com/file/200003701

Cronicas de Un Narco “La Barbie” 2011 MEX Dvdrip Dual [WU-UL]


Titulo: Cronicas de Un Narco “La Barbie”
Mexico ( 2011 )
Calidad: DVDRip
Reparto: Diego Dreyfus, Luis Gatica, Poncho Denigris, Juan Carlos Casasola.

LA BARBIE su verdadera Historia, Esta es la pelicula que el mando hacer… le IMPACTARA!!!

Video

ID                              : 224 (0xE0)

Format                         : MPEG Video

Format version                   : Version 1

Format settings, BVOP            : Yes

Format settings, Matrix          : Default

Duration                         : 1h 39mn

Bit rate mode                    : Constant

Bit rate                         : 952 Kbps

Width                            : 352 pixels

Height                           : 240 pixels

Display aspect ratio             : 4:3

Frame rate                       : 29.970 fps

Standard                         : NTSC

Resolution                       : 8 bits

Scan type                       : Progressive

Bits/(Pixel*Frame)               : 0.376

Stream size                      : 674 MiB (86%)

Audio

ID                               : 192 (0xC0)

Format                           : MPEG Audio

Format version                   : Version 1

Format profile                   : Layer 2

Duration                         : 1h 39mn

Bit rate mode                    : Constant

Bit rate                         : 128 Kbps

Channel(s)                       : 2 channels

Sampling rate                    : 44.1 KHz

Stream size                      : 91.4 MiB (12%)



LINK INTERCAMBIABLES DE 400MB

http://ul.to/8260f838/CRONICAS DE UN NARCO-theone1515.part1.rar

http://ul.to/vyqy28bz/CRONICAS DE UN NARCO-theone1515.part2.rar

http://www.wupload.com/file/200032180

http://www.wupload.com/file/200032179

El Dia Del Apocalipsis 2010 dvdrip Latino [WU-UL]


Titulo: The Crazies
titulo el dia del apocalipsis
Director: Breck Eisner
Guion: Scott Kosar
Genero: Horror | Ciencia-Ficción | Suspenso
País: USA | United Arab Emirates
Año: 2010
Reparto: Timothy Olyphant
Radha Mitchell
Joe Anderson
Danielle Panabaker
Christie Lynn Smith
Brett Rickaby
Preston Bailey
John Aylward
Joe Reegan

Con una toxina que comienza a dar vuelta a los residentes de Ogden Marsh, Iowa en los psicópatas violentos, comisario David Dutton (Olyphant) trata de dar sentido a la situación mientras él, su esposa (Mitchell), y otros dos ciudadanos no afectados banda juntos en una lucha por la supervivencia

Video

ID                               : 224 (0xE0)

Format                           : MPEG Video

Format version                   : Version 1

Format settings, BVOP            : Yes

Format settings, Matrix          : Default

Duration                         : 1h 40mn

Bit rate mode                    : Variable

Bit rate                         : 873 Kbps

Width                            : 352 pixels

Height                           : 240 pixels

Display aspect ratio             : 16:9

Frame rate                       : 29.970 fps

Standard                         : NTSC

Color space                      : YUV

Bit depth                        : 8 bits

Scan type                        : Progressive

Compression mode                 : Lossy

Bits/(Pixel*Frame)               : 0.345

Stream size                      : 629 MiB (85%)

Writing library                  : TMPGEnc XPress 4.7.6.304

Audio

ID                               : 192 (0xC0)

Format                           : MPEG Audio

Format version                   : Version 1

Format profile                   : Layer 2

Duration                         : 1h 40mn

Bit rate mode                    : Constant

Bit rate                         : 128 Kbps

Channel(s)                       : 2 channels

Sampling rate                    : 44.1 KHz

Compression mode                 : Lossy

Stream size                      : 92.2 MiB (13%)



LINK INTERCAMBIABLES DE 400MB

http://ul.to/s3z984af/EL APOCALIPSY.theone1515.part1.rar

http://ul.to/6trah08e/EL APOCALIPSY.theone1515.part2.rar

http://www.wupload.com/file/288087840

http://www.wupload.com/file/288087839

http://www.filesonic.com/file/2305984501/EL APOCALIPSY.theone1515.part1.rar

http://www.filesonic.com/file/2305972811/EL APOCALIPSY.theone1515.part2.rar

El Hijo Del Pelavacas 2011 DVDRip Xvid Latino Mexico [WU-UL]


Año: 2011
Pais: Mexico
DVDRip
Reparto: Bernabe Melendrez, Eleazar Garcia Jr, Alfredo Gutierrez El Turco.

El hijo vuelve a la ciudad para vengar la muerte de la de su padre.

Format : AVI

Format/Info : Audio Video Interleave

File size : 541 MiB

Duration : 1h 35mn

Overall bit rate : 793 Kbps

Writing application : MEncoder Sherpya-SVN-r25088-4.2.1

Writing library : MPlayer

Video #0

ID : 0

Format : MPEG-4 Visual

Format profile : Simple@L3

Format settings, BVOP : No

Format settings, QPel : No

Format settings, GMC : No warppoints

Format settings, Matrix : Default (H.263)

Codec ID : XVID

Codec ID/Hint : XviD

Duration : 1h 35mn

Bit rate : 662 Kbps

Width : 320 pixels

Height : 240 pixels

Display aspect ratio : 4:3

Frame rate : 25.000 fps

Resolution : 24 bits

Colorimetry : 4:2:0

Scan type : Progressive

Bits/(Pixel*Frame) : 0.345

Stream size : 451 MiB (83%)

Writing library : XviD 1.1.2 (UTC 2006-11-01)

Audio #1

ID : 1

Format : MPEG Audio

Format version : Version 1

Format profile : Layer 3

Codec ID : 55

Codec ID/Hint : MP3

Duration : 1h 35mn

Bit rate mode : Variable

Bit rate : 119 Kbps

Channel(s) : 2 channels

Sampling rate : 44.1 KHz

Resolution : 16 bits

Stream size : 81.0 MiB (15%)

Alignment : Aligned on interleaves

Interleave, duration : 26 ms (0.65 video frame)

Interleave, preload duration : 351 ms

Writing library : LAME3.97



LINK INTERCAMBIABLES DE 400MB

http://ul.to/eierk9oi/El_Hijo_Del_Pelavacas-theone1515.part1.rar

http://ul.to/o5ycd17w/El_Hijo_Del_Pelavacas-theone1515.part2.rar

http://www.wupload.com/file/200012492

http://www.wupload.com/file/200012482

El Patroncito 2011 MEX Dvdrip Latino [WU-UL]


Titulo: El Patroncito
Año: 2011
Pais: Mexico
Reparto: Max Hernandez, Bernabe Melendrez, Amador Granados, Margarito Barajas.

Video

ID                               : 224 (0xE0)

Format                           : MPEG Video

Format version                   : Version 1

Format settings, BVOP            : Yes

Format settings, Matrix          : Default

Duration                         : 1h 25mn

Bit rate mode                    : Constant

Bit rate                         : 1 127 Kbps

Width                            : 352 pixels

Height                           : 240 pixels

Display aspect ratio             : 16:9

Frame rate                       : 29.970 fps

Standard                         : NTSC

Resolution                       : 8 bits

Scan type                       : Progressive

Bits/(Pixel*Frame)               : 0.445

Stream size                      : 687 MiB (88%)

Audio

ID                               : 192 (0xC0)

Format                           : MPEG Audio

Format version                   : Version 1

Format profile                   : Layer 2

Duration                         : 1h 25mn

Bit rate mode                    : Constant

Bit rate                        : 128 Kbps

Channel(s)                       : 2 channels

Sampling rate                    : 44.1 KHz

Stream size                      : 78.7 MiB (10%)



LINK INTERCAMBIABLES DE 400MB

http://ul.to/8ghfflix/EL PATRONCITO-theone1515.part1.rar

http://ul.to/6o9q6gmp/EL PATRONCITO-theone1515.part2.rar

http://www.wupload.com/file/200028940

http://www.wupload.com/file/200028941

http://www.filesonic.com/file/2306006761/EL PATRONCITO-theone1515.part1.rar

http://www.filesonic.com/file/2306006771/EL PATRONCITO-theone1515.part2.rar

Horrible Bosses. 2011 -dvdrip - audio latino [FS-WU-UL]


Título original : Horrible Bosses
País : Estados Unidos
Dirección : Seth Gordon
Año : 2011
Duración : 1h 37mn
Reparto : Jason Bateman, Charlie Day, Jason Sudeikis, Jennifer Aniston, Colin Farrell, Kevin Spacey, Jamie Foxx, Julie Bowen, Donald Sutherland, Lindsay Sloane, Kevin Pennington, John Francis Daley, Isaiah Mustafa
Género : Comedia - Comedia negra - Trabajo/empleo

Para Nick, Kurt y Dale, la única solución para hacer su rutina diaria más tolerable sería hacer desaparecer a sus intolerables jefes. No pueden dejar el trabajo, así que, con la ayuda de unas copas de más y el consejo poco fiable de un ex convicto buscavidas, los tres amigos conciben un enrevesado y al parecer infalible plan para deshacerse de sus respectivos jefes… para siempre. Sólo hay un problema: incluso los planes mejor ideados sólo son tan infalibles como los cerebros que los crearon.

General

Format : AVI
Format/Info : Audio Video Interleave
File size : 740 MiB
Duration : 1h 37mn
Overall bit rate : 1 059 Kbps
Writing library : MPlayer

Video

ID : 0
Format : MPEG-4 Visual
Format profile : Advanced Simple@L5
Format settings, BVOP : 2
Format settings, QPel : No
Format settings, GMC : No warppoints
Format settings, Matrix : Default (H.263)
Codec ID : XVID
Codec ID/Hint : XviD
Duration : 1h 37mn
Bit rate : 791 Kbps
Width : 640 pixels
Height : 270 pixels
Display aspect ratio : 2.35:1
Frame rate : 23.976 fps
Color space : YUV
Chroma subsampling : 4:2:0
Bit depth : 8 bits
Scan type : Progressive
Compression mode : Lossy
Bits/(Pixel*Frame) : 0.191
Stream size : 553 MiB (75%)
Writing library : XviD 1.1.2 (UTC 2006-11-01)

Audio

ID : 1
Format : MPEG Audio
Format version : Version 1
Format profile : Layer 3
Mode : Joint stereo
Codec ID : 55
Codec ID/Hint : MP3
Duration : 1h 37mn
Bit rate mode : Constant
Bit rate : 256 Kbps
Channel(s) : 2 channels
Sampling rate : 44.1 KHz
Compression mode : Lossy
Delay relative to video : 42ms
Stream size : 179 MiB (24%)
Alignment : Aligned on interleaves
Interleave, duration : 26 ms (0.63 video frame)
Interleave, preload duration : 809 ms
Writing library : LAME3.97


LINK INTERCAMBIABLES DE 400MB

http://ul.to/e6y0zio5/horrible-bosses-audio-latino-by theone1515.part1.rar

http://ul.to/umwyfqux/horrible-bosses-audio-latino-by theone1515.part2.rar

http://www.wupload.com/file/288138867

http://www.wupload.com/file/288138864

http://www.filesonic.com/file/2306059001/horrible-bosses-audio-latino-by theone1515.part1.rar

http://www.filesonic.com/file/2306058931/horrible-bosses-audio-latino-by theone1515.part2.rar

Inside Qut 2011 DVDRip Xvid Audio Latino [FS-WU-UL]


AÑO: 2011
PAÍS: Estados Unidos
DIRECTOR: Artie Mandelberg
FOTOGRAFÍA: Kenneth Zunder
REPARTO: Paul Levesque, Michael Rapaport, Parker Posey, Bruce Dern
PRODUCTORA: World Wrestling Entertainment (WWE)
GÉNERO: Drama | Crimen

A.J. ha estado los últimos trece años entre rejas acusado de matar a un hombre. Ya en libertad, intentará iniciar un pequeño negocio y vivir una vida libre de crimen.

Calidad: DVDRip
Idioma: Latino

Peso.. 700Mb

Duracion De La Pelicula.. 1:33:06

Bitrate.. avg Bitrate: 1052kb/s

Video.. mpeg4,yuv420p

Resolucion.. 624 x 352, 23.98 fps (r)

Audio.. mp3 ,44100Hz Stereo, 112kb/s



LINK INTERCAMBIABLES DE 400MB

http://ul.to/z5a1tzxo/Inside.Qut.Lat-theone1515.part2.rar

http://ul.to/tesjxbq1/Inside.Qut.Lat-theone1515.part1.rar

http://www.wupload.com/file/288177061

http://www.wupload.com/file/288177060

http://www.filesonic.com/file/2306090201/Inside.Qut.Lat-theone1515.part1.rar

http://www.filesonic.com/file/2306090141/Inside.Qut.Lat-theone1515.part2.rar

Kung Fu Magoo 2011 DVDRip Xvid Audio Latino [WU-UL]

TITULO: Kung Fu Magoo
DURACION: 80 minutos
DIRECCION: Andrés Couturier
PRODUCCION: Kevin Gamble, José C. García de Letona
GUION: Emmy Laybourne, Sam Laybourne
MUSICA: Daniel Ingram
PAIS: Estados Unidos
AÑO: 2011
GENERO: Animación

Los “chicos malos” más notorios son invitados a la isla-fortaleza del súper villano Tan-Gu para competir en un Torneo del Mal, al estilo olímpico. El Sr. Magoo y su sobrino de 12 años, Justin, tendrán que pelear contra arañas robot gigantes, ninjas en jet skíes y contra los mutantes “Beasteens” de Tan-Gu, como representantantes de la fuerza de tarea anti-maldad.

Format : AVI

Format/Info : Audio Video Interleave

File size : 700 MiB

Duration : 1h 19mn

Overall bit rate : 1 237 Kbps

Writing application : VirtualDubMod 1.5.4.1 (build 2178/release)

Writing library : VirtualDubMod build 2178/release

Video #0

ID : 0

Format : MPEG-4 Visual

Format profile : AdvancedSimple@L5

Format settings, BVOP : Yes

Format settings, QPel : No

Format settings, GMC : No warppoints

Format settings, Matrix : Custom

Codec ID : XVID

Codec ID/Hint : XviD

Duration : 1h 19mn

Bit rate : 1 100 Kbps

Width : 656 pixels

Height : 496 pixels

Display aspect ratio : 4:3

Frame rate : 29.970 fps

Resolution : 24 bits

Colorimetry : 4:2:0

Scan type : Progressive

Bits/(Pixel*Frame) : 0.113

Stream size : 623 MiB (89%)

Writing library : XviD 64

Audio #1

ID : 1

Format : MPEG Audio

Format version : Version 1

Format profile : Layer 3

Codec ID : 55

Codec ID/Hint : MP3

Duration : 1h 19mn

Bit rate mode : Constant

Bit rate : 128 Kbps

Channel(s) : 2 channels

Sampling rate : 48.0 KHz

Resolution : 16 bits

Stream size : 72.4 MiB (10%)

Alignment : Aligned on interleaves

Interleave, duration : 67 ms (2.00 video frames)

Interleave, preload duration : 504 ms

Writing library : LAME3.98r

Encoding settings : -m j -V 4 -q 2 -lowpass 17 -b 128

Language : Spanish



LINK INTERCAMBIABLES DE 400MB

http://ul.to/gn2yxf7n/Kung.Fu.Magoo.DVDrip.Latino.theone1515.part1.rar

http://ul.to/x5z0jtc3/Kung.Fu.Magoo.DVDrip.Latino.theone1515.part2.rar

http://www.wupload.com/file/200017853

http://www.wupload.com/file/200017848

Las Aguilas Andan Solas 2 MEX Dvdrip Latino [WU-UL]


Titulo: Las Aguilas Andan Solas 2
Genero: Accion
Año De Produccion: 2011
País: Mexico
Reparto: Oscar Lopez, Fabian lopez, Fernando Saenz, Armando Silvestre..

No Puedes dejar de ver esta segunda entrega de Las Aguilas Andan Solas, con muchisima mas adrenalina que la primer entrega.

Video

ID                               : 224 (0xE0)

Formato                          : MPEG Video

Formato de la versión            : Version 1

Ajustes del formato, BVOP        : Si

Ajustes del formato, Matrix      : Predeterminado

Duración                         : 1h 38min.

Tipo de tasa de bits             : Constante

Tasa de bits                     : 972Kbps

Ancho                            : 352pixeles

Alto                             : 240pixeles

Relación de aspecto              : 16:9

Velocidad de cuadro              : 29,970fps

Estándar                         : NTSC

Resolución                       : 8bits

Tipo de exploración              : Progresivo

Bits/(Pixel*cuadro)              : 0.384

Tamaño de pista                  : 676MB (87%)

Audio

ID                               : 192 (0xC0)

Formato                          : MPEG Audio

Formato de la versión            : Version 1

Formato del perfil               : Layer 2

Duración                         : 1h 38min.

Tipo de tasa de bits             : Constante

Tasa de bits                     : 128Kbps

Canal(es)                        : 2canales

Velocidad de muestreo            : 44,1KHz

Tamaño de pista                  : 89,8MB (11%)



LINK INTERCAMBIABLES DE 400MB

http://ul.to/yyzkq513/LAS AGUILAS ANDAN SOLAS 2-theone1515.part1.rar

http://ul.to/2qzji8d5/LAS AGUILAS ANDAN SOLAS 2-theone1515.part2.rar

http://www.wupload.com/file/200061583

http://www.wupload.com/file/200061585

http://www.filesonic.com/file/2306114081/LAS AGUILAS ANDAN SOLAS 2-theone1515.part1.rar

http://www.filesonic.com/file/2306114131/LAS AGUILAS ANDAN SOLAS 2-theone1515.part2.rar

Los Padrinos Magicos [2011][DVDRip-Audio Latino


Título original: A Fairly Odd Movie: Grow Up, Timmy Turner!
Genero: Comedia, Fantasía, Familia, Personajes reales.
Año: 2011
País: Estados Unidos
Dirección: Savage Steve Holland
Producción: Butch Hartman, Scott MacAboy.
Reparto principal: Drake Bell, Jason Alexander, Cheryl Hines, Daniella Monet, Steven Weber

Trece años han pasado desde que Timmy Turner (Drake Bell) se reunió con su padrinos mágicos, Cosmo y Wanda, pero nada ha cambiado para Timmy, quien todavía vive en casa con sus padres, asiste a la clase del Sr. Crocker (David Lewis), aún sigue en 5to año de primaria, y monta bicicleta para llegar a la escuela.

General

Formato                          : MPEG-PS

Tamaño del archivo               : 577MB

Duración                         : 57min.

Tasa de bits total               : 1 413Kbps

Librería de codificación         : encoded by TMPGEnc 4.0 XPress Version. 4.3.1.222

Video

ID                               : 224 (0xE0)

Formato                          : MPEG Video

Formato de la versión            : Version 1

Ajustes del formato, BVOP        : Si

Ajustes del formato, Matrix      : Predeterminado

Duración                         : 57min.

Tipo de tasa de bits             : Variable

Tasa de bits                     : 1 200Kbps

Ancho                            : 352pixeles

Alto                             : 240pixeles

Relación de aspecto              : 4:3

Velocidad de cuadro              : 29,970fps

Estándar                         : NTSC

ColorSpace                      : YUV

BitDepth/String                  : 8bits

Tipo de exploración              : Progresivo

Bits/(Pixel*cuadro)              : 0.474

Tamaño de pista                  : 487MB (84%)

Librería de codificación         : TMPGEnc XPress 4.3.1.222

Audio

ID                               : 192 (0xC0)

Formato                          : MPEG Audio

Formato de la versión            : Version 1

Formato del perfil               : Layer 2

Duración                         : 57min.

Tipo de tasa de bits             : Constante

Tasa de bits                     : 192Kbps

Canal(es)                        : 2canales

Velocidad de muestreo            : 48,0KHz

Tamaño de pista                  : 78,4MB (14%)



LINK INTERCAMBIABLES DE 400MB

http://ul.to/3nzgcf9x/Padrinos.Magicos.Movie.2011.theone1515.part1.rar

http://ul.to/ofcgxsar/Padrinos.Magicos.Movie.2011.theone1515.part2.rar

http://www.wupload.com/file/200011983

http://www.wupload.com/file/200007247

Los Pequeños Fockers [2011][DvdRip-Audio Latino][WU-UL]


Ficha técnica:
Título Español: Ahora los Padres Son Ellos
Título Latino: Los Pequeños Fockers
Título Original: Little Fockers
Dirección: Paul Weitz
País: USA
Año: 2010
Genero: Comedy
Interpretación: Robert De Niro, Ben Stiller, Jessica Alba, Owen Wilson, Dustin Hoffman, Barbra Streisand, Blythe Danner, Harvey Keitel, Laura Dern, Teri Polo
Guión: John Hamburg, Victoria Strouse, Larry Stuckey
Producción: Robert De Niro
Música: Stephen Trask
Fotografía: Remi Adefarasin
Estreno en USA: 22 December 2010

Tercera entrega tras ‘Los padres de ella’ y ‘Los padres de él’. A la casa de los Fockers llegan los hijos:
dos niñas gemelas. Han tenido que pasar 10 años, y superar incontables obstáculos para que Greg Focker (Ben Stiller)
consiga, por fin, llegar a entenderse más o menos con su exigente suegro Jack Byrnes (Robert de Niro).
Después de sufrir ciertos problemas económicos, Greg consigue un empleo en una compañía farmacéutica. Sin embargo,
la desconfianza de Jack hacia él se agudiza. Cuando se celebra la fiesta de cumpleaños de las gemelas,
Greg debe demostrar al escéptico Jack que es completamente capaz de ser el hombre de la casa.
Pero con todos los malentendidos, el espionaje y las misiones secretas,
¿conseguirá Greg pasar el examen final de Jack y convertirse en el próximo patriarca?…

General

Formato                          : MPEG-PS

Tamaño del archivo               : 740MB

Duración                         : 1h 37min.

Tasa de bits total               : 1 058Kbps

Librería de codificación         : encoded by TMPGEnc 4.0 XPress Version. 4.3.1.222

Video

ID                               : 224 (0xE0)

Formato                         : MPEG Video

Formato de la versión            : Version 1

Ajustes del formato, BVOP        : Si

Ajustes del formato, Matrix      : Predeterminado

Duración                        : 1h 37min.

Tipo de tasa de bits             : Variable

Tasa de bits                     : 850Kbps

Ancho                            : 352pixeles

Alto                            : 240pixeles

Relación de aspecto              : 4:3

Velocidad de cuadro              : 29,970fps

Estándar                         : NTSC

ColorSpace                       : YUV

BitDepth/String                  : 8bits

Tipo de exploración              : Progresivo

Bits/(Pixel*cuadro)              : 0.336

Tamaño de pista                  : 591MB (80%)

Librería de codificación         : TMPGEnc XPress 4.3.1.222

Audio

ID                               : 192 (0xC0)

Formato                          : MPEG Audio

Formato de la versión            : Version 1

Formato del perfil               : Layer 2

Duración                         : 1h 37min.

Tipo de tasa de bits             : Constante

Tasa de bits                     : 192Kbps

Canal(es)                        : 2canales

Velocidad de muestreo            : 48,0KHz

Tamaño de pista                  : 134MB (18%)



LINK INTERCAMBIABLES DE 400MB

http://ul.to/ocn28bia/Little Fockers-Audio Latino-theone1515.part1.rar

http://ul.to/natg5ihs/Little Fockers-Audio Latino-theone1515.part2.rar

http://www.wupload.com/file/288303879

http://www.wupload.com/file/288303877

http://www.filesonic.com/file/2306132721/Little Fockers-Audio Latino-theone1515.part1.rar

http://www.filesonic.com/file/2306132711/Little Fockers-Audio Latino-theone1515.part2.rar

Marley and Me 2 2011 BrRip Xvid Audio Latino [WU-UL]


Título Original: Marley and Me The Puppy Years
País: EE.UU.
Género: Comedia , Familia
Duración: 83 min
Director: Michael Damian
Escritores: Janeen Damian, Michael Damian
Año de producción: 2011
Direccion: Michael Damian, Travis Turner, Donnelly Rhodes, Merrilyn Gann

Tras el gran éxito Marley and Me, el perro más descontrolado del cine regresa a las pantallas, esta vez contando las aventuras y travesuras vividas durante los años de cachorrito.
En esta ocasión Marley pasa el verano, con su dueño Bobby Grogan y su abuelo, un veterano estricto. Entre los dos entrenarán al cachorrito para el concurso de agilidad de perros del vecindario.

Calidad:BrRip
Idioma: Latino

Peso.. 700Mb

Duracion De La Pelicula.. 01:26:05

Bitrate.. avg Bitrate: 1017kb/s

Video.. mpeg4,yuv420p

Resolucion.. 624 x 352, 23.97 fps (r)

Audio.. mp3 ,44100Hz Stereo, 112kb/s


LINK INTERCAMBIABLES DE 400MB

http://ul.to/30yd2he8/marley.and.me.2.latino.theone1515.part1.rar

http://ul.to/49ayht0h/marley.and.me.2.latino.theone1515.part2.rar

http://www.wupload.com/file/200006202

http://www.wupload.com/file/200006239

Never Back Down 2 [2011][Accion][DVDRip-Latino][WU-UL]


Director: Michael Jai White.
Reparto: Stacey Asaro, Gralen Bryant Banks and Rus Blackwell.
País: Estados Unidos.
Género: Acción.
Duración: 102 Minutos.

Cuatro luchadores con distintos pasados se reúnen para entrenar con un ex luchador de artes marciales mixtas y después pelearse contra los demás, con un traidor en el medio.

General

Formato                          : MPEG-PS

Tamaño del archivo               : 758MB

Duración                         : 1h 43min.

Tasa de bits total               : 1 022Kbps

Video

ID                               : 224 (0xE0)

Formato                          : MPEG Video

Formato de la versión            : Version 1

Ajustes del formato, BVOP        : Si

Ajustes del formato, Matrix      : Personlizado

Duración                         : 1h 43min.

Tipo de tasa de bits             : Variable

Tasa de bits                     : 874Kbps

Ancho                            : 352pixeles

Alto                             : 240pixeles

Relación de aspecto              : 3:2

Velocidad de cuadro              : 29,970fps

Estándar                         : NTSC

ColorSpace                       : YUV

BitDepth/String                  : 8bits

Tipo de exploración              : Progresivo

Bits/(Pixel*cuadro)              : 0.345

Tamaño de pista                  : 648MB (85%)

Audio

ID                               : 192 (0xC0)

Formato                          : MPEG Audio

Formato de la versión            : Version 1

Formato del perfil               : Layer 2

Duración                         : 1h 43min.

Tipo de tasa de bits             : Constante

Tasa de bits                     : 128Kbps

Canal(es)                        : 2canales

Velocidad de muestreo            : 44,1KHz

Tamaño de pista                  : 94,9MB (13%)



LINK INTERCAMBIABLES DE 400MB

http://ul.to/ss6svxc2/Never Back Down 2 DVDRip KVCD Latino By theone1515.part2.rar

http://ul.to/6oc2rmeq/Never Back Down 2 DVDRip KVCD Latino By theone1515.part1.rar

http://www.wupload.com/file/200064533

http://www.wupload.com/file/200064536

Scarface 1983 [BrRip-Latino][WU-UL]


TÍTULO: Scarface
AÑO: 1983
PAÍS: Estados Unidos
DIRECTOR: Brian De Palma
GUIÓN: Oliver Stone
MÚSICA: Giorgio Moroder
FOTOGRAFÍA: John A. Alonzo
PRODUCTORA: Universal Pictures
GÉNERO: Drama | Mafia. Drogas. Remake. Crimen. Película de culto
REPARTO: Al Pacino, Michelle Pfeiffer, Steven Bauer, Mary Elizabeth Mastrantonio, Robert Loggia, F. Murray Abraham, Miriam Colon, Harris Yulin, Paul Shenar

Tony Montana es un emigrante cubano frío y sanguinario que se instala en Miami con el propósito de convertirse en un gángster importante. Con la colaboración de su amigo Manny Rivera inicia una fulgurante carrera delictiva con el objetivo de acceder a la cúpula de una organización de narcos.

General

Formato                         : MPEG-PS

Tamaño del archivo               : 780MB

Duración                         : 2h 44min.

Tasa de bits total               : 662Kbps

Video

ID                              : 224 (0xE0)

Formato                          : MPEG Video

Formato de la versión            : Version 1

Ajustes del formato, BVOP        : Si

Ajustes del formato, Matrix      : Personlizado

Duración                         : 2h 44min.

Tipo de tasa de bits             : Variable

Tasa de bits                     : 521Kbps

Ancho                            : 352pixeles

Alto                             : 240pixeles

Relación de aspecto              : 3:2

Velocidad de cuadro              : 29,970fps

Estándar                         : NTSC

ColorSpace                       : YUV

BitDepth/String                  : 8bits

Tipo de exploración              : Progresivo

Bits/(Pixel*cuadro)              : 0.206

Tamaño de pista                  : 614MB (79%)

Audio

ID                               : 192 (0xC0)

Formato                          : MPEG Audio

Formato de la versión            : Version 1

Formato del perfil               : Layer 2

Duración                         : 2h 44min.

Tipo de tasa de bits             : Constante

Tasa de bits                     : 128Kbps

Canal(es)                       : 2canales

Velocidad de muestreo            : 44,1KHz

Tamaño de pista                  : 151MB (19%)



LINK INTERCAMBIABLES DE 400MB

http://ul.to/pnee87rj/Scarface.BrRip.KVCD.Latino-theone1515.part1.rar

http://ul.to/l82ruwjp/Scarface.BrRip.KVCD.Latino-theone1515.part2.rar

http://www.wupload.com/file/200062677

http://www.wupload.com/file/200062669

Scooby Doo Legend Phantosaur [2011][Animacion][DVDRip-Latino][WU-UL]


TÍTULO ORIGINAL: Scooby-Doo! Legend of the Phantosaur
AÑO: 2011
DURACIÓN: 74 min.
PAÍS: Estados Unidos
DIRECTOR: Douglas Langdale
GUIÓN: Douglas Langdale
PRODUCTORA: Warner Home Video
GÉNERO: Animación. Comedia. Fantástico. Intriga. Infantil

Una escapada a un spa se convierte en una aventura de terror prehistórica cuando Scooby-Doo y la pandilla descubre un horrible fantasma-Sauro, una antigua leyenda que cobra vida para proteger los tesoros enterrados en las cuevas de un desierto secreto.

General

Formato                          : MPEG-PS

Tamaño del archivo               : 754MB

Duración                         : 1h 28min.

Tasa de bits total               : 1 188Kbps

Video

ID                               : 224 (0xE0)

Formato                          : MPEG Video

Formato de la versión            : Version 1

Ajustes del formato, BVOP        : Si

Ajustes del formato, Matrix      : Personlizado

Duración                         : 1h 28min.

Tipo de tasa de bits             : Variable

Tasa de bits                     : 1 036Kbps

Ancho                            : 352pixeles

Alto                             : 240pixeles

Relación de aspecto              : 4:3

Velocidad de cuadro              : 29,970fps

Estándar                         : NTSC

ColorSpace                       : YUV

BitDepth/String                  : 8bits

Tipo de exploración              : Progresivo

Bits/(Pixel*cuadro)              : 0.409

Tamaño de pista                  : 658MB (87%)

Audio

ID                               : 192 (0xC0)

Formato                          : MPEG Audio

Formato de la versión            : Version 1

Formato del perfil               : Layer 2

Duración                         : 1h 28min.

Tipo de tasa de bits             : Constante

Tasa de bits                     : 128Kbps

Canal(es)                        : 2canales

Velocidad de muestreo            : 44,1KHz

Tamaño de pista                  : 81,2MB (11%)



LINK INTERCAMBIABLES DE 400MB

http://ul.to/mt04vl3d/Scooby.Doo.Legend.Phantosaur.AudioLatino.DvDRip.theone1515.part1.rar

http://ul.to/1va8qpuo/Scooby.Doo.Legend.Phantosaur.AudioLatino.DvDRip.theone1515.part2.rar

http://www.wupload.com/file/200115858

http://www.wupload.com/file/200115856

http://www.filesonic.com/file/2306188001/Scooby.Doo.Legend.Phantosaur.AudioLatino.DvDRip.theone1515.part1.rar

http://www.filesonic.com/file/2306187991/Scooby.Doo.Legend.Phantosaur.AudioLatino.DvDRip.theone1515.part2.rar

The Zookeeper.2011.Bdrip.XviD-Audio.Latino [WU-UL]


El solitario cuidador de un zoológico (Kevin James) quiere abandonar su trabajo porque es incapaz de mantener una relación seria con una chica; pero, para evitarlo, los animales a los que cuida deciden echarle una mano.

Título original: The Zookeeper
País: USA
AÑO: 2011
Género: Comedia. Romance
Director: Frank Coraci
Reparto: Kevin James, Rosario Dawson, Leslie Bibb, Ken Jeong, Donnie Wahlberg, Joe Rogan, Nat Faxon

1220 Mb
XviD 720×304 @ 1964kbps @ 25fps | AC3 448 Kbps
Calidad: Bdrip
Audio: Latino
Subtitulos: No



LINK INTERCAMBIABLES DE 400MB

http://ul.to/kvb5hbxm/zookeeper.Bdrip.Latino.part3.rar

http://ul.to/dlf44ig2/zookeeper.Bdrip.Latino.part4.rar

http://ul.to/ez41712x/zookeeper.Bdrip.Latino.part2.rar

http://ul.to/vydq4jrb/zookeeper.Bdrip.Latino.part1.rar

http://www.wupload.com/file/288451880

http://www.wupload.com/file/288451887

http://www.wupload.com/file/288460354

http://www.wupload.com/file/288451877

http://www.filesonic.com/file/2306214471/zookeeper.Bdrip.Latino.part1.rar

http://www.filesonic.com/file/2306214491/zookeeper.Bdrip.Latino.part2.rar

http://www.filesonic.com/file/2306214501/zookeeper.Bdrip.Latino.part3.rar

http://www.filesonic.com/file/2306210431/zookeeper.Bdrip.Latino.part4.rar

Thomas y Sus Amigos: El Dia de los Combustibles Dvdrip Latino [WU-UL]


Thomas Y Sus Amigos :El Dia De Los Combustibles
Thomas.and.Friends.Day.of.the.Diesels.
Año:2011
Pais: Estados unidos
Rated: Unrated
Run Time: 57 minutes
Studio: Lyons / Hit Ent.
Genero:Animacion.

El Steamies y el diesel se enfrentan en esta película de aventuras repleta de acción! Cuando se produce un incendio en la isla de Sodor, dos motores nuevos de lucha contra incendios - Flynn y Belle - unirse a Thomas y Percy para salvar el día! Cuando Thomas empieza a pasar todo su tiempo con los más nuevos héroes Sodor, Percy se deja sentir en paz. Diesel lo ve y lo invita a Percy a la Dieselworks, donde Percy se le hace sentir especial por nada menos que el maestro del mal Diesel 10! Pero Percy no sabe que él es parte del plan maestro de diesel 10 para hacerse cargo de la Steamworks Sodor. Percy puede llevar el equipo de vapor para recuperar el Steamworks o que los motores diesel que sea su nuevo hogar? Es a todo vapor para que el fuego entusiasmo en esta nueva película de Thomas & Friends ™!

Video

ID                               : 224 (0xE0)

Format                           : MPEG Video

Format version                   : Version 1

Format settings, BVOP            : Yes

Format settings, Matrix          : Default

Duration                         : 57mn 23s

Bit rate mode                    : Constant

Bit rate                         : 1 751 Kbps

Width                            : 352 pixels

Height                           : 240 pixels

Display aspect ratio             : 16:9

Frame rate                       : 29.970 fps

Standard                         : NTSC

Resolution                       : 8 bits

Scan type                        : Progressive

Bits/(Pixel*Frame)               : 0.692

Stream size                      : 713 MiB (91%)

Audio

ID                               : 192 (0xC0)

Format                           : MPEG Audio

Format version                   : Version 1

Format profile                   : Layer 2

Duration                         : 57mn 23s

Bit rate mode                    : Constant

Bit rate                         : 128 Kbps

Channel(s)                       : 2 channels

Sampling rate                    : 44.1 KHz

Stream size                      : 52.5 MiB (7%)



LINK INTERCAMBIABLES DE 400MB

http://ul.to/dchq7d9b/tofridod-theone1515.part1.rar

http://ul.to/yzs3qyb3/tofridod-theone1515.part2.rar

http://www.wupload.com/file/288629533

http://www.wupload.com/file/288629531

http://www.filesonic.com/file/2306483061/tofridod-theone1515.part1.rar

http://www.filesonic.com/file/2306483041/tofridod-theone1515.part2.rar

Transformers.3[2011][Dvd-Rip][Audio-Latino][FS-WU-UL]


TÍTULO ORIGINAL Transformers: Dark of the Moon (Transformers 3)

AÑO 2011

DURACIÓN 157 min.

PAÍS Estados Unidos

DIRECTOR Michael Bay

GUIÓN Ehren Kruger

MÚSICA Steve Jablonsky

FOTOGRAFÍA Amir M. Mokri

REPARTO Shia LaBeouf, Josh Duhamel, Rosie Huntington-Whiteley, John Malkovich, Patrick Dempsey, Ken Jeong, John Turturro, Frances McDormand, Peter Cullen, Tyrese Gibson

PRODUCTORA DreamWorks SKG / Paramount Pictures / Hasbro

En esta tercera entrega de la saga Transformers, los Autobots y los Decepticons se ven envueltos en una peligrosa carrera espacial en la Tierra entre los EE.UU. y Rusia, y una vez más Sam Witwicky tendrá que acudir en ayuda de sus amigos robots...

Calidad: Dvd-Rip

Duracion: 02:34:26

Tamaño: 1.38 gb

Codec: Xvid

Resolución: 720x304

FPS: 23,976

Audio: AUDIO-LATINO Cam (bastante bueno)

Codec: Mp3

Bitrate: 128 kb/s

Canales: 2 (stereo)

Tasa Muestreo: 44100 Hz



LINK INTERCAMBIABLES DE 400MB

http://ul.to/rwftjy2b/trasformer.3.Latino.theone1515.part1.rar

http://ul.to/s0bz3ykm/trasformer.3.Latino.theone1515.part4.rar

http://ul.to/oxfumcc4/trasformer.3.Latino.theone1515.part3.rar

http://ul.to/95rc20y6/trasformer.3.Latino.theone1515.part2.rar

http://www.wupload.com/file/288701555

http://www.wupload.com/file/288701552

http://www.wupload.com/file/288701551

http://www.wupload.com/file/288701553

http://www.filesonic.com/file/2306545661/trasformer.3.Latino.theone1515.part1.rar

http://www.filesonic.com/file/2306545631/trasformer.3.Latino.theone1515.part2.rar

http://www.filesonic.com/file/2306545681/trasformer.3.Latino.theone1515.part3.rar

http://www.filesonic.com/file/2306545601/trasformer.3.Latino.theone1515.part4.rar

Vatos Locos 2011 Dvdrip Dual latino-ingles [FS-WU-UL]


Titulo: VATOS LOCOS
Director:
Damian Chapa
Writer:
Damian Chapa
Stars:
Damian Chapa, Gabriel Tang and Ricco Chapa
Country:
USA
Language:
English | Spanish
Filming Locations:
Los Angeles, California, USA

Vatos Locos “es también el título de Chapa de la nueva película de Damián, que está programado para ser lanzado el 05/05/2011. La película está protagonizada por Damian Chapa, que también fue” Miklo “en la película” Blood In Blood Out “. La película es producido por la producción de Damian Chapa de la compañía Amadeus Pictures. la película no es una extensión ni una secuela del gran éxito de culto “Blood In Blood Out”. el título y el actor Damian Chapa son las únicas similitudes entre los dos.

Video

ID                               : 224 (0xE0)

Format                           : MPEG Video

Format version                   : Version 1

Format settings, BVOP            : Yes

Format settings, Matrix          : Default

Duration                         : 1h 16mn

Bit rate mode                    : Constant

Bit rate                         : 1 284 Kbps

Width                            : 352 pixels

Height                           : 240 pixels

Display aspect ratio             : 4:3

Frame rate                       : 29.970 fps

Standard                         : NTSC

Resolution                       : 8 bits

Scan type                        : Progressive

Bits/(Pixel*Frame)               : 0.507

Stream size                      : 696 MiB (89%)

Audio

ID                               : 192 (0xC0)

Format                           : MPEG Audio

Format version                   : Version 1

Format profile                   : Layer 2

Duration                         : 1h 16mn

Bit rate mode                    : Constant

Bit rate                         : 128 Kbps

Channel(s)                       : 2 channels

Sampling rate                    : 44.1 KHz

Stream size                      : 69.9 MiB (9%)


LINK INTERCAMBIABLES DE 400MB

http://ul.to/wwpttl0g/Plebes Locos 2011.theone1515.part2.rar

http://ul.to/pbu0xdi5/Plebes Locos 2011.theone1515.part1.rar

http://www.wupload.com/file/200021988

http://www.wupload.com/file/200021989

http://www.filesonic.com/file/2353400901/Plebes Locos 2011.theone1515.part1.rar

http://www.filesonic.com/file/2353400841/Plebes Locos 2011.theone1515.part2.rar

Young Justice [2011][Animacion][DVDRip-Latino][WU-UL]


TÍTULO ORIGINAL: Young Justice (TV Series)
OTROS TÍTULOS: Justicia Joven
AÑO: 2010
DURACIÓN: 30 min.
PAÍS: USA
DIRECTOR: Greg Weisman (Creator), Brandon Vietti (Creator), Jay Oliva, Michael Chang
GUIÓN: Greg Weisman, Kevin Hopps, Andrew Robinson, Nicole Dubuc, Jon Weisman, Tom Pugsley, Peter David
MÚSICA: Kristopher Carter, Michael McCuistion, Lolita Ritmanis
FOTOGRAFÍA: Animation
PRODUCTORA: DC Entertainment / Warner Bros. Animation
GÉNERO: Serie de TV. Animación. Acción. Ciencia ficción. Fantástico | Superhéroes. Cómic. DC Comics

Nueva reimaginación de la franquicia Teen Titants, presentando superhéroes en su etapa como adolescentes lidiando además de con supervillanos, con problemas típicos de su edad.
La serie se desarrolla en el universo ficticio de la Tierra-16, durante un periodo de tiempo en los que los superhéroes son un fenómeno relativamente reciente. La serie se estrenó en enero de 2011. El episodio piloto salió al aire el 26 de noviembre de 2010.

General

Formato                          : MPEG-PS

Tamaño del archivo               : 650MB

Duración                         : 1h 30min.

Tasa de bits total               : 1 001Kbps

Video

ID                               : 224 (0xE0)

Formato                          : MPEG Video

Formato de la versión            : Version 1

Ajustes del formato, BVOP        : Si

Ajustes del formato, Matrix      : Personlizado

Duración                         : 1h 30min.

Tipo de tasa de bits             : Variable

Tasa de bits                     : 853Kbps

Ancho                            : 352pixeles

Alto                             : 240pixeles

Relación de aspecto              : 3:2

Velocidad de cuadro              : 29,970fps

Estándar                         : NTSC

ColorSpace                       : YUV

BitDepth/String                  : 8bits

Tipo de exploración              : Progresivo

Bits/(Pixel*cuadro)              : 0.337

Tamaño de pista                  : 554MB (85%)

Audio

ID                               : 192 (0xC0)

Formato                          : MPEG Audio

Formato de la versión            : Version 1

Formato del perfil               : Layer 2

Duración                         : 1h 30min.

Tipo de tasa de bits             : Constante

Tasa de bits                     : 128Kbps

Canal(es)                        : 2canales

Velocidad de muestreo            : 44,1KHz

Tamaño de pista                  : 83,2MB (13%)



LINK INTERCAMBIABLES DE 400MB

http://ul.to/0cge9uoi/Young Justice DVDRip KVCD Latino by theone1515.part1.rar

http://ul.to/msf362y4/Young Justice DVDRip KVCD Latino by theone1515.part2.rar

http://www.wupload.com/file/200071332

http://www.wupload.com/file/200071328

http://www.filesonic.com/file/2353417941/Young Justice DVDRip KVCD Latino by theone1515.part1.rar

http://www.filesonic.com/file/2353417931/Young Justice DVDRip KVCD Latino by theone1515.part2.rar


Mensaje Privado
11735 Visitas


FavoriteLoadingAñadir a favoritos


Categoria: Peliculas

RSS Seguir Feed RSS Comentarios | Temas de theone1515

Comentarios

  • muchas gracias descargando buen aporte

  • JAJAJAJAJAJA, QUE “MEZCLA” MAS BIZARRA DE PELICULAS QUE HE VISTO POR ACA, POR CIERTO; TODAS LAS PELICULAS MEXICANAS SON UNOS CHURROS (NO SIRVEN) OJO, SOY MEXICANO, POR ESO DIGO LA VERDAD....NINGUNA QUE VALGA LA PENA, MAS QUE LA DE SCARFACE...IGUAL SE AGRADECE TU APORTE, PERO PARA LA PROXIMA...SELECCIONA MEJOR LAS PELICULAS..¿BARBIE VS EL HIJO DEL PELA VACAS ? JAJAJAJAJA

  • muchas gracias descargando muy buan aporte

  • con que pongas los links,el audio y cuanto pesa es suficiente digo ya que tarda en cargarse la pagina

Deja tu comentario

Debes iniciar sesion para poder enviar un comentario.

Terminos y Condiciones - Politica de Privacidad - Report Abuse - DMCA